<?xml version="1.0" standalone="no"?>
<!DOCTYPE svg PUBLIC "-//W3C//DTD SVG 1.1//EN" "http://www.w3.org/Graphics/SVG/1.1/DTD/svg11.dtd" >
<svg xmlns="http://www.w3.org/2000/svg" xmlns:xlink="http://www.w3.org/1999/xlink" version="1.1">
<metadata>
Created by FontForge 20170731 at Mon Jun 29 12:39:53 2015
 By Aleksey,,,
Copyright (c) 2015 by Carolina Marando and Alejandro Paul. All rights reserved. www.sudtipos.com, with Reserved Font Name "Blog Script"
</metadata>
<defs>
<font id="BlogScript" horiz-adv-x="519" >
  <font-face 
    font-family="Blog Script"
    font-weight="400"
    font-stretch="normal"
    units-per-em="1000"
    panose-1="2 0 5 3 0 0 0 2 0 4"
    ascent="800"
    descent="-200"
    x-height="455"
    cap-height="882"
    bbox="-765 -942 1259 1237"
    underline-thickness="50"
    underline-position="-200"
    unicode-range="U+0020-FB02"
  />
<missing-glyph horiz-adv-x="350" 
 />
    <glyph glyph-name="fi" unicode="fi" horiz-adv-x="715" 
d="M544 638q11 0 17 -9t6 -21q0 -27 -22 -54.5t-44 -27.5q-57 0 -57 41q0 16 37.5 43.5t62.5 27.5zM220 847q43 0 62 -18.5t19 -42.5q0 -13 -4.5 -22.5t-11.5 -9.5q-10 0 -13.5 4.5t-15.5 4.5q-18 0 -35 -34.5t-28.5 -108t-11.5 -170.5q0 -69 14 -247q131 40 214 107l19 120
q2 20 23.5 33.5t45.5 13.5q21 0 34 -11.5t13 -35.5v-136q0 -201 17 -201q10 0 56.5 54t88.5 108l41 54q24 34 45 34q16 0 16 -19q0 -9 -3.5 -22t-6.5 -21l-4 -8q-3 -7 -8 -18t-22.5 -44t-36.5 -63t-47.5 -66.5t-58 -63t-66.5 -44.5t-74 -18q-83 0 -83 193q0 41 3 82
q-104 -88 -198 -112q23 -226 23 -273q0 -87 -24 -119q-53 -75 -100 -75q-25 0 -25 23q0 6 -20.5 309.5t-20.5 466.5q0 188 59 292t125 104z" />
    <glyph glyph-name="fl" unicode="fl" horiz-adv-x="871" 
d="M578 829q-23 -134 -23 -301q0 -23 2 -73q51 135 51 228q0 52 -7.5 99t-22.5 47zM700 694q-9 -233 -126 -390q19 -111 52.5 -181.5t68.5 -70.5q25 0 50 19t45.5 49.5t40.5 67t36.5 73.5t30.5 67t26.5 49t20.5 19q9 0 9 -25q0 -39 -19.5 -107.5t-52 -141t-84.5 -125.5
t-107 -53h-5q-95 4 -161 86t-98 224q-113 -106 -224 -135q23 -226 23 -273q0 -87 -24 -119q-53 -75 -100 -75q-25 0 -25 23q0 6 -20.5 309.5t-20.5 466.5q0 188 59 292t125 104q43 0 62 -18.5t19 -42.5q0 -13 -4.5 -22.5t-11.5 -9.5q-10 0 -13.5 4.5t-15.5 4.5
q-18 0 -35 -34.5t-28.5 -108t-11.5 -170.5q0 -69 14 -247q134 40 220 112q-16 96 -16 217q0 44 1 66q6 152 56.5 234.5t114.5 82.5q53 0 91 -59t38 -162z" />
    <glyph glyph-name="o_n" unicode="on" horiz-adv-x="1149" 
d="M245 303q-51 0 -89 8q-13 -91 -13 -159q0 -127 46 -127q30 0 46 56.5t16 134.5q0 46 -6 87zM1222 382q14 0 14 -42q0 -44 -15.5 -109t-41.5 -130.5t-69 -112t-91 -46.5q-61 0 -99 33.5t-50.5 81t-17.5 95t-8.5 81t-14.5 33.5q-15 0 -33.5 -32.5t-38.5 -79t-42.5 -93
t-55 -79t-67.5 -32.5q-58 0 -58 105q0 53 12 156t12 147q-90 -27 -181 -43q3 -23 3 -49q0 -72 -19 -130t-45.5 -90.5t-58 -54.5t-54 -29.5t-36.5 -7.5t-32 3.5t-42.5 15.5t-44.5 30t-34 51t-14 75q0 118 65 213q-1 12 -1 33q0 58 46 86.5t109 28.5q98 0 138 -92
q109 16 224 54q20 7 36 7h2q17 0 26 -1.5t21 -7t17 -20.5t5 -39q0 -36 -11 -105.5t-14 -99.5q8 12 26.5 41.5t27 43t25.5 35.5t30 32t31 18t37 8q49 0 81 -33.5t45.5 -81t21.5 -95t17 -81t24 -33.5q24 0 56.5 53.5t58 117.5t48.5 117.5t30 53.5z" />
    <glyph glyph-name="o_v" unicode="ov" horiz-adv-x="974" 
d="M174 293l-16 34q-14 -117 -14 -175q0 -127 45 -127q30 0 46.5 58t16.5 136q0 29 -3 57q-6 -2 -19 -2q-28 0 -56 19zM950 292q34 23 48 23q12 0 19 -12.5t7 -27.5q0 -23 -16.5 -43.5t-30.5 -28.5q-28 -17 -63 -17q-37 0 -71.5 18.5t-55.5 48.5q-4 -8 -18 -33t-43.5 -73.5
t-59.5 -89t-64.5 -72t-58.5 -31.5q-57 0 -57 104q0 37 9 119.5t9 114.5v7q1 7 2.5 18.5t2.5 24.5t1.5 29t0.5 30q0 67 -17 67q-10 0 -25 -11t-27.5 -24t-35 -37.5t-36.5 -38.5q10 -43 10 -91q0 -72 -19 -130t-45.5 -90.5t-58 -54.5t-54 -29.5t-36.5 -7.5t-32 3.5t-42.5 15.5
t-44.5 30t-34 51t-14 75q0 118 66 214q-1 12 -1 32q0 58 46 87t109 29q38 0 81 -25q70 84 131 84q195 0 195 -222q0 -38 -5.5 -80.5t-12.5 -74t-7 -36.5q6 0 14.5 8t17.5 20.5t20 29.5t21 33.5t20 35t16.5 31t12.5 23.5t6 12q-29 42 -29 96q0 46 25 82.5t71 36.5
q79 0 82 -68q-4 -41 -28 -96q-2 -16 -2 -22q0 -34 18.5 -56.5t45.5 -22.5q17 0 37 12z" />
    <glyph glyph-name="o_w" unicode="ow" horiz-adv-x="1165" 
d="M182 390q10 0 18 7h-2q-17 0 -26 -6q3 -1 10 -1zM184 272q-17 0 -32 7q-8 -72 -8 -127q0 -127 45 -127q30 0 46.5 58t16.5 136q0 37 -5 79q-32 -26 -63 -26zM1157 302q11 11 28 11q16 0 22 -8q11 -14 11 -31q0 -34 -34 -64q-50 -42 -114 -42q-74 0 -109 49l-3 -9
q-4 -9 -9.5 -22t-14 -31.5t-17.5 -38.5t-21 -41.5t-23.5 -41.5t-25 -38t-26.5 -31t-27 -21t-26 -8q-48 0 -65 28.5t-17 88.5q0 16 2 58q-87 -159 -189 -159l-1 1q-60 0 -60 114q0 42 10 127t11 97q2 32 2 43q0 38 -6.5 63.5t-18 36.5t-21.5 14.5t-23 3.5q-17 0 -46 -34
q34 -56 34 -151q0 -72 -19 -130t-45.5 -90.5t-58 -54.5t-54 -29.5t-36.5 -7.5t-32 3.5t-42.5 15.5t-44.5 30t-34 51t-14 75q0 118 65 213q-1 12 -1 33q0 28 11 49t26.5 33t35.5 19.5t35 10t28 2.5q7 1 18 1q34 0 67 -15q45 34 92 34q211 0 211 -190q0 -36 -7 -76t-15 -70.5
t-9 -36.5q21 0 41.5 54t42 115.5t44.5 73.5q7 5 11 5h2q1 -1 2 -1t2.5 0.5t2.5 0.5q78 0 78 -126q0 -33 -5 -72t-10.5 -71t-6.5 -39q20 0 72.5 89.5t70.5 128.5q-13 18 -13 82q0 49 18 83t60 34q84 0 84 -58q0 -16 -5.5 -33.5t-14.5 -37t-9 -20.5q0 -30 18.5 -51t49.5 -21
q35 0 65 30z" />
    <glyph glyph-name="o_z" unicode="oz" horiz-adv-x="1058" 
d="M615 142q20 20 47 50q-47 -26 -47 -50zM667 -238q-4 -12 -4 -16q0 -17 17 -17q29 0 63.5 42t45.5 116v1q-55 -41 -82 -67.5t-40 -58.5zM217 452q-32 0 -40 -19q19 -72 80 -125q-3 57 -15 100.5t-25 43.5zM169 93q58 0 79 94q-59 27 -91 75q-4 -53 -4 -95q0 -74 16 -74z
M348 165h-1q-14 -51 -38 -89t-50 -55.5t-46.5 -25.5t-34.5 -8q-13 0 -31 4.5t-41.5 18.5t-43 35.5t-33 60t-13.5 86.5q0 76 15.5 142t31.5 94l16 29q-10 3 -10 20q0 35 126 35q7 0 18 -1.5t40 -13t51.5 -32t40.5 -64t18 -102.5q0 -17 -2 -45q49 -8 90 21q26 19 53 50.5
t45.5 59.5t47 57t60.5 45q52 25 106 25q6 0 16.5 -0.5t36.5 -7t46 -17.5t36.5 -35.5t16.5 -57.5q0 -71 -62 -162q62 -39 77 -112q123 97 173 169q21 32 38 32q10 0 17.5 -9t7.5 -19q0 -25 -23 -57q-98 -129 -209 -229q-1 -47 -6.5 -88.5t-23 -94.5t-44.5 -90.5t-77 -63.5
t-117 -26q-3 1 -8.5 2.5t-19.5 10t-24.5 20.5t-19.5 36t-9 55v2q1 56 57.5 115t163.5 140q11 110 11 116q0 22 -7 37q-100 -112 -192 -112h-9q-10 0 -19 2t-20.5 8.5t-18.5 22t-7 38.5q0 33 54.5 79t125.5 49q72 93 72 136q0 38 -53 38q-36 0 -72.5 -23.5t-60 -50t-56 -69
t-48.5 -59.5q-66 -70 -158 -72z" />
    <glyph glyph-name="r_r" unicode="rr" horiz-adv-x="855" 
d="M499 495q0 -31 14 -50q5 23 5 41t-7 18q-2 0 -5 -2t-5 -4zM588 513q0 -49 -11 -107q4 -1 17 -5.5t17.5 -6t16 -6t16 -7.5t14 -9t13.5 -11.5t10.5 -14t9 -17.5t4.5 -21t2 -25q0 -54 4.5 -91.5t10.5 -51.5t13 -14q43 0 155 178q32 52 53 52q7 0 14 -7q7 -8 7 -23
q0 -30 -29 -82q-24 -42 -49.5 -81t-59 -82.5t-68.5 -69.5t-64 -26q-38 0 -62 45t-24 137q0 103 -43 146q-42 -137 -119.5 -233t-166.5 -96q-86 0 -86 227q0 25 -2.5 42.5t-10.5 36.5t-26 29t-45 10q-42 0 -81.5 33t-39.5 64q0 19 3 40t10.5 45.5t24 40t39.5 15.5
q87 0 87 -72q0 -18 -5.5 -40t-11 -37.5t-5.5 -17.5q0 -1 1 -1q43 0 98 -20q39 -16 57.5 -90t23 -140t10.5 -66q20 0 79.5 90.5t96.5 183.5q-39 19 -59 50t-20 100q0 36 30 64.5t67 28.5t60.5 -27t23.5 -60z" />
    <glyph glyph-name="t_h" unicode="th" horiz-adv-x="820" 
d="M469 869q-14 0 -26 -114q40 47 40 88q0 26 -14 26zM277 68q0 91 10.5 253t11.5 219q-40 -11 -103 -19q-6 -107 -9.5 -314.5t-7.5 -276.5q-3 -47 -28.5 -78t-59.5 -31q-28 0 -50 22q-14 14 -14 177q0 223 19 498q-75 7 -128 25t-53 41q0 39 53 39q14 0 40 -3t33 -3
q43 0 63 1q23 281 45 330q8 17 25.5 28.5t36.5 11.5q30 0 50.5 -29t20.5 -91q0 -36 -9 -86q-11 -59 -19 -146q60 11 109 32q19 133 60.5 204t116.5 71q32 0 57 -33t25 -76q0 -153 -136 -237q0 -34 2.5 -103t2.5 -104q0 -23 -2 -71q24 50 46.5 77.5t47.5 27.5q49 0 82.5 -32
t49 -78t25 -92t20 -78t25.5 -32q24 0 50 37t44 81.5t34.5 81.5t23.5 37q19 0 19 -54q0 -53 -18 -115t-61.5 -114t-101.5 -52q-51 0 -86.5 24t-50.5 60t-23.5 78t-9.5 78t-5.5 60t-14.5 24q-17 0 -34 -43.5t-31 -97.5t-41 -106t-62 -65q-14 -12 -52 -12h-3q-35 2 -35 54z" />
    <glyph glyph-name="t_t" unicode="tt" horiz-adv-x="671" 
d="M409 245v36q0 118 2 246h-87q-84 0 -125 1q-17 -95 -56 -171q13 -128 42.5 -209t66.5 -81q41 0 79 48.5t78 129.5zM791 619q55 0 77 -9.5t22 -31.5q0 -13 -5.5 -19.5t-10.5 -7.5t-15 -1q-124 -14 -308 -20v-51q0 -243 13.5 -505t13.5 -263q0 -4 -0.5 -9t-0.5 -7
q-1 -12 -10 -12q-10 0 -25 14t-33.5 47t-36 79t-32.5 118t-23 156q-81 -138 -170 -138h-4q-64 3 -107.5 40.5t-67.5 115t-34.5 176t-12.5 243.5q-165 9 -250 29q-11 13 -11 31q0 19 10.5 34t27.5 16q4 1 14 1q17 0 44 -3q50 -5 165 -16q2 100 37.5 161.5t77.5 61.5
q33 0 55 -41.5t22 -119.5q0 -38 -3 -74q103 -4 203 -6q4 98 16 213q3 32 11.5 55t17.5 34.5t20 18.5t17 8t11 1h1q8 -1 12.5 -5.5t10.5 -22.5t9.5 -52t6.5 -97t4 -153q126 4 241 11z" />
    <glyph glyph-name="v_r" unicode="vr" horiz-adv-x="722" 
d="M339 541q72 0 72 -65q0 -14 -3.5 -33t-3.5 -21q0 -3 1 -3q43 0 98 -20q39 -16 57.5 -79.5t23 -119t10.5 -55.5q44 0 154 178q33 52 54 52q7 0 13 -6q7 -8 7 -24q0 -33 -28 -82q-149 -259 -241 -259q-86 0 -86 227q0 25 -2.5 42.5t-10.5 36.5t-26 29t-45 10h-9
q-18 -38 -37.5 -75t-51.5 -87.5t-62.5 -88t-66.5 -64t-68 -26.5q-57 0 -57 104q0 49 10.5 150.5t10.5 156.5q0 71 -13 104q-4 8 -4 18q0 16 12 26.5t28 10.5q25 0 44 -22.5t29 -56.5t15 -65t5 -55q0 -46 -7 -98.5t-15.5 -92t-8.5 -43.5q33 0 78.5 86t65.5 155q-29 26 -29 60
q0 95 87 95z" />
    <glyph glyph-name="w_r" unicode="wr" horiz-adv-x="924" 
d="M608 349l-8 -17q-8 -16 -19.5 -41t-29 -57.5t-35.5 -65.5t-39 -65.5t-40.5 -57t-39.5 -40t-35 -15.5q-48 0 -65 28t-17 88q0 16 2 58q-86 -158 -189 -158l-1 1q-61 0 -61 115q0 42 10 126t11 97q3 28 3 52q0 12 -4 32t-4 28q0 19 18.5 32t42.5 13q38 0 53 -29
q20 -40 20 -100q0 -36 -7 -76t-14.5 -70.5t-8.5 -36.5q19 0 36 41t36 99.5t35 82.5q14 25 51 25q71 -9 71 -146q0 -34 -4 -73.5t-9.5 -72t-5.5 -37.5q30 0 166 260q-24 14 -37 35.5t-13 41.5q0 95 87 95q72 0 72 -65q0 -14 -3.5 -33t-3.5 -21q0 -3 1 -3q47 0 98 -21
q30 -12 48.5 -54t23.5 -85.5t9 -78.5t10 -35q44 0 154 178q33 52 54 52q7 0 13 -6q7 -8 7 -24q0 -33 -28 -82q-149 -259 -242 -259q-37 0 -61 45t-24 137q0 44 -2.5 69t-10.5 49t-25.5 34.5t-45.5 10.5z" />
    <glyph glyph-name="z_z" unicode="zz" horiz-adv-x="997" 
d="M1042 289q4 5 10 11t8.5 9t6 6.5t7 4.5t6.5 1q10 0 17.5 -9t7.5 -19q0 -25 -22 -55q-62 -74 -118 -133q39 -70 39 -151q0 -360 -294 -360q-48 0 -90.5 37t-42.5 110v2q1 61 68 142.5t193 201.5q-5 13 -14 27q-93 -123 -214 -123q-3 0 -8.5 1t-18.5 8t-23 17.5t-18.5 33.5
t-8.5 53q0 16 12.5 40t35.5 50.5t65 44.5t93 18q12 0 36 -4q37 54 37 85q0 35 -48 35q-97 0 -293 -215q5 -25 5 -47t-0.5 -37.5t-2.5 -51t-6.5 -62t-14 -64t-22.5 -65t-34 -57.5t-46.5 -49t-62.5 -31.5t-80 -12.5q-11 0 -22.5 4.5t-26 15.5t-23.5 37.5t-9 64.5v3
q1 48 67.5 151.5t164.5 212.5q0 29 -6 43q-100 -111 -200 -111q-10 0 -19 2t-21 8.5t-19.5 22.5t-7.5 39q0 33 55 79t126 49q72 93 72 136q0 38 -54 38q-55 0 -100 -43t-92 -116q-36 -55 -72 -126q-3 -17 -24 -17q-20 0 -20 18q0 6 3 13q0 2 6.5 20t20 52t29.5 64
q106 207 269 207q6 0 16.5 -0.5t37 -7t46.5 -17.5t36.5 -35t16.5 -57q0 -71 -62 -162q22 -16 31 -26q51 49 85 79t84 66t100.5 53.5t101.5 17.5q20 0 38.5 -3.5t40 -12.5t34.5 -30t13 -52q0 -69 -43 -157q21 -17 41 -38q60 59 121 123zM156 179q21 20 48 50q-48 -26 -48 -50
zM702 176q-34 0 -62.5 -26.5t-28.5 -56.5q0 -3 3 -3q9 0 38.5 25t61.5 60q-2 0 -6 0.5t-6 0.5zM208 -201q-3 -7 -3 -12q0 -17 18 -17q13 0 29.5 12.5t35 38.5t34.5 75.5t25 113.5q-115 -149 -139 -211zM667 -259q0 -55 50 -55q63 0 105.5 66t42.5 155q0 57 -5 91
q-117 -116 -145 -152q-48 -60 -48 -105z" />
    <glyph glyph-name=".notdef" horiz-adv-x="350" 
 />
    <glyph glyph-name=".notdef" horiz-adv-x="350" 
 />
    <glyph glyph-name=".null" horiz-adv-x="0" 
 />
    <glyph glyph-name="nonmarkingreturn" horiz-adv-x="333" 
 />
    <glyph glyph-name="space" unicode=" " horiz-adv-x="350" 
 />
    <glyph glyph-name="exclam" unicode="!" horiz-adv-x="361" 
d="M156 -144q21 0 38 14.5t17 34.5q0 22 -20 39.5t-45 17.5q-20 0 -35.5 -13t-15.5 -31q0 -25 18.5 -43.5t42.5 -18.5zM184 75q-58 6 -58 132q0 80 8 234t8 229q0 19 -1 41t-1 28q0 76 22.5 101.5t59.5 25.5q86 0 86 -164q0 -40 -4 -83q-32 -327 -48 -408q-27 -136 -72 -136
z" />
    <glyph glyph-name="quotedbl" unicode="&#x22;" horiz-adv-x="289" 
d="M136 749q0 -52 -33.5 -90.5t-62.5 -38.5q-20 0 -20 23q0 15 9 26t18.5 37.5t9.5 77.5q0 71 37 71q42 0 42 -106zM258 749q0 -52 -33.5 -90.5t-62.5 -38.5q-20 0 -20 23q0 13 6 23t13 18.5t13 34t6 65.5q0 71 37 71q41 0 41 -106z" />
    <glyph glyph-name="numbersign" unicode="#" horiz-adv-x="677" 
d="M324 578q0 -30 -12 -105h5q33 -1 101 -1q19 105 33 135t47 30t33 -58q0 -39 -12 -107h67q23 0 35.5 -16t13.5 -35q0 -15 -13.5 -25t-30.5 -10q-2 -1 -89 -6q-1 -3 -8 -37.5t-16 -78.5h145q23 0 36 -15.5t13 -32.5q0 -18 -12 -28.5t-32 -10.5l-22 -1q-21 -2 -62 -4t-84 -3
q-16 -83 -20 -119q-3 -22 -17 -33.5t-32 -11.5q-16 0 -26.5 11.5t-10.5 28.5q0 3 0.5 7t0.5 5q4 43 13 110h-116q-14 -80 -19 -117q-3 -22 -17.5 -33.5t-32.5 -11.5q-16 0 -26 11.5t-10 28.5q0 3 0.5 7t0.5 5q4 42 13 109h-5q-31 0 -47.5 1t-34.5 6t-25.5 16.5t-7.5 30.5
q0 45 134 47q7 51 18 108h-75q-29 0 -43 1t-32 5t-27 14.5t-12 28.5q-1 2 -1 7q0 10 7 17q22 27 166 27h35q19 103 33 132.5t46 29.5q34 0 34 -59zM293 375l-22 -108q18 0 55.5 -0.5t56.5 -0.5q9 61 18 110q-33 -1 -108 -1z" />
    <glyph glyph-name="dollar" unicode="$" horiz-adv-x="498" 
d="M287 55q0 34 -16 63q-4 -78 -5 -109q21 13 21 46zM185 642q0 -56 29 -128l5 86q5 85 6 137q-40 -33 -40 -95zM198 -114v41q-36 10 -57.5 36t-21.5 52q0 32 30 38q1 0 3.5 0.5t3.5 0.5q11 0 18 -5.5t15 -18.5t11 -17q3 146 4 192q-1 2 -24 27t-27.5 30t-24 28.5t-26 33
t-21 30.5t-20.5 34.5t-13 32.5t-10 36q-8 48 -8 85q0 63 19 114.5t51 83.5t63 51.5t66 31.5q4 47 13.5 64.5t34.5 20.5h1q18 0 24 -70q29 0 51 -14t29.5 -25.5t9.5 -19.5q0 -41 -29 -45h-3q-8 0 -25.5 13t-29.5 16v-10q0 -119 -16 -355q15 -17 57 -57.5t62.5 -64t40 -65.5
t19.5 -87q0 -81 -55 -132t-151 -67v-35q0 -22 -12.5 -32t-26.5 -10h-2q-23 0 -23 36v2z" />
    <glyph glyph-name="percent" unicode="%" horiz-adv-x="685" 
d="M537 202q-18 0 -18 -56q0 -21 3.5 -39t9.5 -17q9 0 15.5 23t6.5 48q0 27 -7 35q-6 6 -10 6zM584 8q-33 -26 -63 -26q-49 0 -80 60.5t-31 128.5q0 64 27 85q67 52 122 52q39 0 59 -29q34 -42 34 -120q0 -98 -68 -151zM138 706v10q0 53 -13 53q-16 -2 -16 -57q0 -28 7 -36
q4 -4 8 -4q12 0 14 34zM70 855q34 28 65 28q50 0 83 -62.5t33 -130.5q0 -57 -48 -95t-100 -38q-48 0 -71.5 50t-23.5 106q0 89 62 142zM57 -141q101 325 250 698q20 50 41 104.5t34.5 89.5t28 72.5t23.5 60t20 45.5t19.5 35t18.5 22t20 13.5t22 3.5q9 0 21 -3q21 -4 21 -42
q0 -68 -69.5 -249t-181 -447.5t-167.5 -429.5q-16 -47 -61 -47q-12 0 -24 4q-22 7 -22 36z" />
    <glyph glyph-name="ampersand" unicode="&#x26;" horiz-adv-x="824" 
d="M205 522q0 -31 9 -65q62 81 62 170q0 63 -34 63q-37 0 -37 -168zM385 32q-131 90 -211 211q-22 -39 -22 -82q0 -30 4.5 -50.5t18.5 -43t45.5 -34t79.5 -11.5q49 0 85 10zM246 747q61 0 101.5 -39t40.5 -117q0 -52 -22.5 -101t-44 -74t-63.5 -69q82 -155 212 -270
q84 72 84 225v22q-57 23 -87 23q-26 0 -36 -21q-10 -23 -10 -43q0 -1 4 -29q2 -5 2 -12q0 -15 -16 -15q-10 0 -16 6q-24 21 -24 65q0 29 14 59q26 59 74 77q21 8 44 8q45 0 92 -24t85.5 -47.5t63.5 -23.5q13 0 14 14q0 7 4 15q3 7 22 8q6 0 12.5 -8.5t6.5 -21.5
q0 -32 -29.5 -51.5t-65.5 -19.5q-31 0 -79 12q-6 -161 -100 -264q64 -43 108 -43q9 0 14.5 -6.5t5.5 -15.5q0 -26 -36 -26q-63 0 -148 41q-84 -60 -176 -60q-122 0 -199.5 56t-77.5 164q0 54 25.5 102.5t72.5 103.5q-36 83 -36 167q0 112 52.5 172.5t111.5 60.5z" />
    <glyph glyph-name="quotesingle" unicode="'" horiz-adv-x="204" 
d="M185 736q0 -51 -38.5 -121.5t-87.5 -70.5q-26 0 -49 31q2 3 19.5 21.5t33.5 43.5t24 54q26 94 56 94q19 0 30.5 -15.5t11.5 -36.5z" />
    <glyph glyph-name="parenleft" unicode="(" horiz-adv-x="372" 
d="M325 -32q67 -29 67 -45q0 -15 -67 -15q-35 0 -70 14.5t-73 52.5t-66 96.5t-46.5 156t-18.5 221.5t18.5 221.5t46.5 156t66 97t73 53t70 14.5q45 0 45 -25q0 -12 -10.5 -26t-26.5 -23q-68 -37 -97 -150t-29 -318q0 -217 25 -335.5t93 -145.5z" />
    <glyph glyph-name="parenright" unicode=")" horiz-adv-x="374" 
d="M65 888q-67 27 -67 44q0 16 66 16q36 0 71 -14.5t72.5 -53t65.5 -97t46.5 -156t18.5 -221.5t-18.5 -221.5t-46.5 -156t-65.5 -96.5t-72.5 -52.5t-71 -14.5q-45 0 -45 25q0 12 11 26t27 22q68 37 97 150.5t29 317.5q0 217 -25 336t-93 146z" />
    <glyph glyph-name="asterisk" unicode="*" horiz-adv-x="402" 
d="M247 959q21 0 21 -37q0 -18 -7 -65q45 44 60.5 57t28.5 13q10 0 18.5 -5.5t8.5 -15.5v-2q0 -24 -78 -97q51 0 69 1h2q14 0 22.5 -10t8.5 -21t-8.5 -17.5t-19.5 -6.5q-33 0 -103 -4q52 -85 61 -98l1 -1q5 -10 5 -16q0 -11 -8.5 -21t-19.5 -10q-16 2 -22 15q-5 3 -57 82
q-14 -78 -19 -114q-4 -27 -32 -27q-23 0 -23 26v6q4 39 12 94l-46 -46q-10 -10 -22 -10t-19 6q-9 7 -11 17q0 16 11 22q27 31 67 72h-74q-25 0 -36.5 1t-22.5 8t-14 22v3q0 5 4 13q14 17 106 17q32 0 50 -1l-37 61q-23 36 -23 53q0 14 12 25q5 5 15 5q22 -4 70 -82
q0 -2 1 -2q7 40 11 55t12.5 25t24.5 10z" />
    <glyph glyph-name="plus" unicode="+" horiz-adv-x="393" 
d="M218 534q50 0 50 -66q0 -12 -4 -72q21 0 49 2q22 2 29 2q29 0 42.5 -14.5t15.5 -49.5v-7q0 -43 -65 -43q-23 0 -78 5h-1l-3 -86q-1 -15 -2 -23t-10.5 -18t-27.5 -10q-2 -1 -6 -1q-19 0 -34 12t-15 32v3h1q-6 29 -6 98l-81 3q-13 1 -17 1.5t-14.5 4t-15 12t-5.5 22.5v6
q0 20 12 34t32 15q23 5 94 5q2 127 60 133z" />
    <glyph glyph-name="comma" unicode="," horiz-adv-x="251" 
d="M121 80q65 0 65 -75q0 -66 -41.5 -121.5t-84.5 -55.5q-10 0 -24 5.5t-14 15.5q0 7 14 24.5t27.5 45t13.5 59.5q0 102 44 102z" />
    <glyph glyph-name="hyphen" unicode="-" horiz-adv-x="337" 
d="M312 248q14 -1 14 -46q-2 -23 -5.5 -31t-14.5 -8q-64 0 -115.5 -5t-87 -11t-46.5 -7h-6q-36 0 -36 41q3 56 28 84t83 28q116 0 186 -45z" />
    <glyph glyph-name="period" unicode="." horiz-adv-x="254" 
d="M152 78q33 -14 33 -41q0 -31 -35.5 -63t-63.5 -32q-27 0 -49.5 24t-22.5 40q0 19 29.5 48.5t74.5 29.5q16 0 34 -6z" />
    <glyph glyph-name="slash" unicode="/" horiz-adv-x="527" 
d="M29 -141q102 325 250 698q20 50 41 104.5t34.5 89.5t28 72.5t24 60t20.5 45.5t19 34.5t18 22t20 14t22 3.5q42 0 42 -45q0 -68 -69.5 -249t-181 -447.5t-167.5 -429.5q-16 -47 -61 -47q-46 0 -46 40z" />
    <glyph glyph-name="zero" unicode="0" horiz-adv-x="508" 
d="M280 41q11 0 22.5 36t20 113.5t8.5 176.5q0 127 -15 207q-15 86 -36 86q-22 0 -47.5 -46.5t-33.5 -120.5q-7 -67 -7 -149q0 -303 88 -303zM277 739q17 0 35 -4t45 -22t47 -47.5t34.5 -87.5t14.5 -136q0 -270 -44.5 -388t-146.5 -118q-31 0 -58 9.5t-55.5 37.5t-48.5 72
t-32.5 118t-12.5 172q0 104 24.5 185t61 124t72 64t64.5 21z" />
    <glyph glyph-name="one" unicode="1" horiz-adv-x="431" 
d="M335 536q0 -29 8 -185q8 -180 8 -235q0 -104 -9 -140q-17 -65 -72 -65q-77 0 -77 190q0 95 19 522q-77 -117 -108 -149q-30 -30 -48 -30q-9 0 -17 5t-8 15q0 13 10 37q16 40 49.5 95t79 104.5t78.5 49.5q25 0 42.5 -16t26 -36.5t13 -55t5 -54t0.5 -52.5z" />
    <glyph glyph-name="two" unicode="2" horiz-adv-x="411" 
d="M242 750q44 0 72 -30.5t37.5 -70t9.5 -88.5v-2q0 -84 -31 -187t-56.5 -156.5t-67.5 -133.5q-26 -50 -31 -63h23q150 0 150 -36q0 -30 -41.5 -42t-145.5 -12q-72 0 -101.5 17.5t-29.5 61.5q0 28 17 79t33 87t52 113q39 82 60 130t42 113.5t21 106.5q0 17 -5 24.5t-24 7.5
q-14 0 -24 -6t-14 -12t-11 -18q-21 -40 -54 -40q-15 0 -15 23q0 50 39.5 92t94.5 42z" />
    <glyph glyph-name="three" unicode="3" horiz-adv-x="477" 
d="M279 438q20 -9 39 -22.5t43.5 -40t40 -70.5t15.5 -99q0 -134 -69.5 -214.5t-185.5 -80.5q-31 0 -60 6t-55 27t-26 53q0 13 9.5 23.5t23.5 10.5q12 0 34 -11q30 -15 50 -15q39 0 78 59.5t39 145.5q0 40 -8.5 70t-24.5 48t-31.5 28t-37.5 17q-18 6 -32.5 21.5t-14.5 33.5
q0 27 33 38q24 9 48 59t24 99q0 18 -4.5 31t-10.5 19.5t-13.5 10t-11 4t-6.5 0.5q-16 0 -34 -11q-16 -9 -28 -9t-24 10t-12 22q0 3 2 9q10 20 64.5 40t91.5 20q46 0 81.5 -48t35.5 -129q0 -98 -63 -155z" />
    <glyph glyph-name="four" unicode="4" horiz-adv-x="543" 
d="M441 565q0 -61 2 -215q30 -12 30 -48q0 -12 -30 -20q0 -57 -0.5 -90t-2.5 -83t-6.5 -79.5t-12 -60t-20.5 -44.5t-30 -14q-14 0 -25 11q-36 38 -36 245v93q-72 -8 -128 -8q-137 0 -137 46t36.5 156t82 203t68.5 93q40 0 57 -26q11 -16 11 -46q0 -60 -71 -229
q-37 -83 -37 -98v-1q61 0 121 5v4q4 128 4 189q0 80 6 132.5t17.5 77t23 33.5t27.5 9h2q35 0 44 -100q4 -39 4 -135z" />
    <glyph glyph-name="five" unicode="5" horiz-adv-x="417" 
d="M194 494q16 -7 32 -15.5t46.5 -33t52.5 -53.5t39.5 -77t17.5 -103q0 -65 -29 -132.5t-85.5 -116t-122.5 -48.5q-39 0 -39 32q0 21 42 45q19 11 29.5 18t29.5 25t29 37.5t18.5 52.5t8.5 74q0 87 -43 132q-34 34 -81 34q-48 0 -58.5 34t-10.5 158q0 118 19 165.5t80 47.5
q94 0 141.5 -8.5t47.5 -36.5q0 -38 -104 -38q-32 0 -48 2q-23 -23 -23 -92q0 -52 11 -103z" />
    <glyph glyph-name="six" unicode="6" horiz-adv-x="497" 
d="M190 192q-1 -20 -1 -58q0 -93 23 -117q12 -12 29 -12q38 0 70.5 46t32.5 92q0 28 -6.5 56t-23 51t-40.5 23q-47 0 -83 -25q0 -37 -1 -56zM278 364q72 0 115.5 -62.5t43.5 -147.5q0 -55 -17.5 -99.5t-41.5 -69.5t-52.5 -41.5t-48.5 -22.5t-32 -6q-13 0 -29.5 2.5t-49 17.5
t-57.5 40.5t-44.5 79t-19.5 126.5q0 101 23.5 195t58.5 159.5t74.5 115.5t73 74.5t53.5 24.5q23 0 27 -9q1 -1 1 -4q0 -5 -3 -8q-64 -79 -105.5 -195t-54.5 -190q34 20 85 20z" />
    <glyph glyph-name="seven" unicode="7" horiz-adv-x="420" 
d="M168 779q12 0 25 -1.5t36 -10t40 -23t30 -44t13 -69.5q0 -103 -8 -226q20 3 37 3q44 0 44 -29q0 -10 -6 -22q-16 -37 -77 -37h-5q-35 -405 -131 -405q-23 0 -36 16q-16 17 -16 63q0 38 18 151q18 126 22 161q-31 -9 -48 -9q-37 0 -37 36q0 17 26.5 32t65.5 24
q16 188 16 271q0 39 -7 43q-19 0 -30.5 0.5t-28 4t-25 12t-8.5 21.5q0 18 30 28t60 10z" />
    <glyph glyph-name="eight" unicode="8" horiz-adv-x="426" 
d="M259 49q0 48 -67 184q-39 -70 -39 -139q0 -115 51 -115q25 0 38.5 17.5t15.5 35.5zM178 791h1q39 0 39 -31q0 -11 -11 -17t-24 -9.5t-24 -17t-11 -36.5q0 -39 82 -199q49 105 49 183q0 63 -28 73q-8 2 -16.5 11.5t-8.5 18.5q0 18 41 18q27 0 47 -10.5t29 -26t14.5 -31
t6.5 -25.5v-11q0 -170 -81 -308q74 -159 74 -245q0 -58 -11 -102.5t-27.5 -69.5t-37.5 -40.5t-38 -20.5t-33 -5q-20 0 -44.5 10.5t-50.5 32.5t-43.5 65t-17.5 99q0 47 23.5 101t68.5 132q-76 167 -76 262q0 53 9.5 92t22 58.5t29.5 31.5t27.5 14.5t19.5 2.5z" />
    <glyph glyph-name="nine" unicode="9" horiz-adv-x="469" 
d="M259 434q3 27 3 71q0 166 -52 166q-11 0 -27.5 -16t-30.5 -52.5t-14 -81.5q0 -31 8.5 -52.5t23 -30.5t25.5 -12.5t23 -3.5q17 0 41 12zM207 770q39 0 71.5 -11t63.5 -38t49 -81.5t18 -132.5q0 -143 -46.5 -291t-119 -243.5t-142.5 -95.5q-24 0 -24 36q0 22 51 114
q35 65 53 101t40 97.5t24 106.5q-18 0 -36.5 3t-50 14.5t-55 30.5t-41 57t-17.5 89q0 57 14.5 102.5t35 71t44.5 42.5t41 22.5t27 5.5z" />
    <glyph glyph-name="colon" unicode=":" horiz-adv-x="301" 
d="M55 461q0 41 25.5 76t66.5 35q45 0 45 -62q0 -100 -83 -100q-54 0 -54 51zM137 213q26 0 44.5 -13.5t18.5 -39.5q0 -37 -28.5 -72t-66.5 -35q-22 0 -34 21.5t-12 49.5q0 29 18.5 59t59.5 30z" />
    <glyph glyph-name="semicolon" unicode=";" horiz-adv-x="301" 
d="M131 203q65 0 65 -75q0 -66 -41.5 -121.5t-84.5 -55.5q-10 0 -24 5.5t-14 15.5q0 7 13.5 24.5t27.5 45t14 59.5q0 102 44 102zM55 461q0 41 25.5 76t66.5 35q45 0 45 -62q0 -100 -83 -100q-54 0 -54 51z" />
    <glyph glyph-name="less" unicode="&#x3c;" horiz-adv-x="360" 
d="M340 479q-1 -20 -27 -42t-88 -61q-59 -39 -74 -50q84 -78 138 -120q31 -23 31 -55q0 -19 -13.5 -32t-33.5 -13q-31 0 -72 29q-89 63 -134 110t-45 88v8q3 20 15 34t38.5 30.5t33.5 22.5q149 103 187 103q5 0 7 -1q18 0 27.5 -15t9.5 -36z" />
    <glyph glyph-name="equal" unicode="=" horiz-adv-x="547" 
d="M114 406q-29 0 -42 2t-26 13t-16 35v5q0 25 27 36t99 11q31 0 108 -2.5t118 -2.5q49 0 70 1l2 1q17 0 26.5 -16t9.5 -34q0 -15 -7.5 -24.5t-14 -11.5t-10.5 -2h1q0 -1 -48.5 -3.5t-122.5 -5.5t-128 -3q-32 0 -46 1zM517 245v-4q0 -14 -8 -22.5t-13.5 -10t-9.5 -1.5
q-24 0 -130 -5.5t-215 -5.5q-18 0 -28 0.5t-22 3.5t-18.5 9t-11 16.5t-4.5 26.5q0 25 28 35.5t99 10.5q29 0 133 -3.5t162 -0.5h3q17 0 26 -15.5t9 -33.5z" />
    <glyph glyph-name="greater" unicode="&#x3e;" horiz-adv-x="359" 
d="M159 519q91 -65 135 -112t44 -94q-1 -15 -13 -30t-23 -23t-33 -22q-171 -115 -205 -115h-2q-4 0 -6 1q-18 0 -27 15t-9 36q1 20 26.5 41.5t87.5 61.5q54 34 74 50q-76 73 -137 119q-31 26 -31 56q0 19 13.5 32t33.5 13q31 0 72 -29z" />
    <glyph glyph-name="question" unicode="?" horiz-adv-x="409" 
d="M238 35q-27 -2 -50 -18.5t-23 -41.5q0 -20 20 -35t46 -15q25 0 46.5 15t21.5 38q0 25 -18.5 41t-42.5 16zM45 585q-14 0 -22 19t-8 50q0 46 15.5 91.5t55.5 82t96 36.5q242 0 242 -254q0 -60 -21 -122t-47 -106t-47 -102t-21 -109q0 -76 -56 -76q-32 0 -56.5 30
t-24.5 103q0 47 11 105q13 64 47.5 163.5t34.5 165.5q0 98 -73 98q-27 0 -44 -27.5t-23.5 -60t-21 -60t-37.5 -27.5z" />
    <glyph glyph-name="at" unicode="@" horiz-adv-x="835" 
d="M366 131q16 0 44.5 65.5t28.5 104.5q0 24 -14 24q-34 0 -53 -49t-19 -101q0 -44 13 -44zM870 342q1 6 4.5 14.5t19 22.5t37.5 14q16 0 16 -39q0 -6 -7 -33.5t-25 -74.5t-44 -99t-68 -106.5t-92.5 -97.5t-122.5 -70.5t-154 -27.5q-77 0 -138.5 14t-101.5 35t-69 53.5
t-43.5 61.5t-23 67.5t-10 63t-1.5 56.5q0 31 2 58.5t11 71t25 78.5t47 74t73.5 65t108 43t146.5 17q151 0 231 -66.5t80 -149.5q0 -45 -17.5 -103t-47.5 -112.5t-77.5 -92t-99.5 -37.5q-30 0 -42.5 27t-17.5 87q-54 -103 -115 -103q-45 0 -71 46t-26 106q0 83 64.5 142.5
t150.5 59.5q27 0 52 -6.5t48 -31t23 -64.5t-9 -73.5t-18 -52t-9 -21.5q0 -4 7 -4q31 0 51.5 75.5t20.5 121.5q0 71 -52.5 107.5t-132.5 36.5q-40 0 -73 -7.5t-66 -29t-55 -57t-35.5 -95t-13.5 -139.5q0 -58 21 -101.5t48 -64.5t63.5 -33.5t56.5 -14.5t37 -2h5q54 0 107 21.5
t94.5 56t79 76t64 83.5t46 76.5t28.5 55.5z" />
    <glyph glyph-name="A" unicode="A" horiz-adv-x="557" 
d="M247 646q-34 -130 -74 -306q35 6 69 6l25 -1q-15 198 -20 301zM31 30q0 63 11 155.5t19 140t30 168.5q50 289 117 351q22 21 66 21q30 0 67 -24q29 -20 53 -170.5t47 -337.5t43 -252q12 -40 12 -74q0 -39 -15.5 -57.5t-53.5 -18.5q-99 0 -147 319q-81 0 -126 3l-47 -215
q-8 -35 -13.5 -43t-26.5 -8q-36 0 -36 42z" />
    <glyph glyph-name="B" unicode="B" horiz-adv-x="596" 
d="M235 772q1 -64 17 -280q44 12 72 60t28 118q0 99 -117 102zM262 341q10 -146 15 -297q117 47 117 166q0 131 -132 131zM394 460q72 -15 106.5 -77t34.5 -147q0 -127 -91 -213.5t-266 -89.5h-10q-52 0 -80 21.5t-28 59.5q0 12 10 338t10 416q0 97 176 97q42 0 78.5 -8.5
t72.5 -30t57 -65t21 -106.5q0 -134 -91 -195z" />
    <glyph glyph-name="C" unicode="C" horiz-adv-x="546" 
d="M268 -39q-56 0 -98.5 29.5t-66.5 74.5t-39 108.5t-19.5 120.5t-4.5 122q0 46 2.5 84.5t10.5 83t21 79.5t36 68.5t54 55.5t76 35.5t101 13.5q39 0 68 -11.5t43.5 -27t23 -36t10 -33t1.5 -24.5q0 -21 -20 -31t-40 -10q-15 0 -23.5 14.5t-12.5 32.5t-20.5 32.5t-45.5 14.5
q-37 0 -55.5 -83.5t-18.5 -209.5q0 -164 27.5 -299.5t71.5 -135.5q34 0 61 31t56 31q28 0 28 -25q0 -36 -59 -70.5t-168 -34.5z" />
    <glyph glyph-name="D" unicode="D" horiz-adv-x="708" 
d="M277 399q0 -47 1 -122.5t1 -103.5q0 -87 -6 -129q51 8 88.5 37t57 64.5t30.5 88.5t13.5 94t2.5 96q0 59 -7.5 109t-26.5 100t-57.5 79t-94.5 29h-16q14 -76 14 -342zM151 860q28 0 50 -11q61 0 116.5 -7t120 -30.5t111 -61t78 -105.5t31.5 -158q0 -97 -14.5 -177
t-38 -134t-56.5 -95.5t-67.5 -65.5t-74.5 -38.5t-72.5 -19.5t-66.5 -5q-24 0 -34 1q-20 -16 -54 -16q-27 0 -48.5 17t-33.5 45.5t-20.5 57.5t-11.5 62t-4 50t-1 30v3q0 450 29 580q-19 16 -19 39l4 19l40 5q13 15 36 15z" />
    <glyph glyph-name="E" unicode="E" horiz-adv-x="573" 
d="M424 395q-83 -30 -172 -30h-9q6 -132 34 -221.5t73 -89.5q31 0 52 7t29 15t20 15t29 7q20 0 30 -11t10 -28q0 -20 -11 -37q-30 -47 -144 -47q-86 0 -149 26t-98 65.5t-55.5 98.5t-26.5 111.5t-6 118.5q0 53 9 124.5t36 154.5t66 116q0 19 5 25.5t20 6.5q83 0 309 -30
q27 -4 36.5 -12t10.5 -24v-1q0 -17 -10 -30t-20 -17l-11 -4q-60 -20 -212 -24q-25 -87 -27 -216h5q139 0 178 -15q14 -5 14 -26q0 -22 -15 -28z" />
    <glyph glyph-name="F" unicode="F" horiz-adv-x="561" 
d="M502 370q-42 -19 -114.5 -38.5t-139.5 -19.5h-1q-1 -89 -6.5 -153.5t-20 -124t-43 -90t-70.5 -30.5q-47 0 -47 419q0 109 3 236.5t7 200.5l3 73q23 21 57 26q35 15 94 15q151 0 264 -38q2 0 5.5 -1.5t9.5 -12.5t6 -29q0 -47 -25 -47q-154 0 -231 -27q1 -15 1 -49
q0 -31 -3 -112.5t-4 -131.5q26 -1 86.5 -1.5t104.5 -2t59 -7.5q14 -7 14 -23q0 -12 -9 -32z" />
    <glyph glyph-name="G" unicode="G" horiz-adv-x="608" 
d="M339 390q80 27 144 27q62 0 70 -38q5 -39 5 -95q0 -46 -4 -89t-18 -94.5t-36.5 -88.5t-63.5 -62t-95 -25q-79 0 -134.5 17t-87.5 45t-50 76t-23.5 96.5t-5.5 119.5q0 70 8.5 144.5t30 156.5t54.5 146t88 105.5t123 41.5q63 0 106.5 -29.5t43.5 -55.5q0 -19 -26 -19
q-29 0 -56 14t-61 14q-46 0 -75.5 -154t-29.5 -335q0 -126 16.5 -207.5t49.5 -81.5q18 0 33.5 6t27 20.5t20 28t15 38t10.5 40.5t7 46.5t4.5 44.5t3 45.5t2.5 39.5q-77 4 -98 13q-11 4 -11 24q0 21 13 25z" />
    <glyph glyph-name="H" unicode="H" horiz-adv-x="652" 
d="M452 842q0 2 0.5 5t2.5 11.5t6 15t11.5 11.5t17.5 5q43 0 43 -57q0 -195 7.5 -327t16 -179t16 -90t7.5 -80q0 -92 -23 -141.5t-63 -49.5q-24 0 -40 24.5t-26 92t-10 179.5q0 9 0.5 28.5t0.5 29.5q-75 -32 -171 -36q-1 -84 -7.5 -146t-21.5 -117t-43 -84t-68 -29
q-47 0 -47 416q0 110 3.5 238t6.5 202l3 73q31 27 72 27q110 0 110 -193q0 -33 -3 -121.5t-4 -144.5q106 6 173 36q5 118 12.5 218.5t12.5 141.5z" />
    <glyph glyph-name="I" unicode="I" horiz-adv-x="315" 
d="M193 -77q-9 -7 -26 -7q-32 0 -65 31t-33 333q0 38 0.5 115t0.5 113q0 58 -5 134.5t-5 114.5q0 59 16.5 92t68.5 33q98 0 98 -288q0 -147 -12.5 -315t-24.5 -262z" />
    <glyph glyph-name="J" unicode="J" horiz-adv-x="562" 
d="M464 798q0 -80 8 -201t8 -172q0 -127 -32 -241q-22 -79 -55.5 -135.5t-71.5 -85t-73 -40.5t-71 -12q-41 0 -70 12q-26 10 -45 32t-27.5 46.5t-12 43t-3.5 30.5q10 39 34 39q7 0 14 -3q6 -3 20 -25t36.5 -40.5t52.5 -18.5q32 0 55 41.5t34 102t15.5 107.5t4.5 78
q0 67 -13 179.5t-13 161.5q0 189 107 189q31 0 53 -12t30.5 -29.5t11.5 -28.5t3 -18z" />
    <glyph glyph-name="K" unicode="K" horiz-adv-x="592" 
d="M469 768q27 40 46 40q23 0 23 -32l-4 -31q-29 -119 -240 -357q37 -33 123 -147.5t113 -139.5q43 -40 43 -74q0 -25 -27 -49t-54 -24q-54 0 -121 90q-73 98 -136 214l-10 -310q-28 -28 -65 -28q-97 0 -97 189q0 29 3 140.5t3 198.5q0 75 2.5 132t10.5 115.5t21 96
t36.5 61.5t55.5 24q40 0 42 -403q50 73 134 174t98 120z" />
    <glyph glyph-name="L" unicode="L" horiz-adv-x="560" 
d="M101 864q62 0 92 -47q20 -31 34 -131t14 -188q0 -10 3 -109t3 -168q0 -100 -5 -159q90 5 126 5q166 0 166 -43q0 -38 -19.5 -55.5t-87.5 -26.5t-214 -9q-25 0 -45 5.5t-35 12t-26.5 22.5t-19 26.5t-12.5 34.5t-7.5 36.5t-3.5 43t-1.5 42t-0.5 45.5q0 47 -3.5 188
t-3.5 214q0 261 46 261z" />
    <glyph glyph-name="M" unicode="M" horiz-adv-x="896" 
d="M691 870q36 0 60 -17t34.5 -47.5t14.5 -59t4 -65.5q0 -28 -3.5 -139.5t-3.5 -198.5q0 -96 -5 -164t-19 -133t-43 -98.5t-74 -33.5q-46 0 -46 412q0 145 5 292q-9 -15 -32 -52.5t-34.5 -56.5t-29 -46t-29 -42.5t-20.5 -23.5q-21 -21 -53 -21q-33 0 -56 82q-8 27 -104 188
q1 -16 1 -49q-1 -148 -13.5 -316t-24.5 -262l-13 -94q-9 -7 -26 -7q-33 0 -66 32q-32 30 -32 330q0 40 0.5 118t0.5 114q0 57 -5 133t-5 114q0 124 64 124q71 0 165 -103.5t150 -224.5q28 75 116 195t122 120z" />
    <glyph glyph-name="N" unicode="N" horiz-adv-x="667" 
d="M148 847q19 10 32 10q9 0 17 -3.5t11 -7.5l3 -3q11 0 72 -151.5t117 -303.5l55 -152q-1 8 -1 27q0 67 27 264.5t27 267.5q0 41 17.5 59.5t42.5 18.5q18 0 33.5 -8.5t15.5 -17.5q0 -239 -21.5 -457.5t-46 -331.5t-41.5 -123q-15 -10 -41 -10q-27 0 -40 9q-25 16 -86 132
t-110 224l-49 107q0 -246 -10.5 -346t-53.5 -118q-15 -6 -28 -6q-28 0 -30 17q-6 39 -6 108q0 197 34.5 490t59.5 305z" />
    <glyph glyph-name="O" unicode="O" horiz-adv-x="705" 
d="M357 39q24 0 42.5 26.5t33 81.5t22.5 147.5t8 217.5q0 247 -89 247q-19 0 -32 -4.5t-30.5 -19t-29.5 -47t-23 -83.5t-16.5 -135t-5.5 -194q0 -34 4.5 -68t15.5 -75.5t37 -67.5t63 -26zM38 261q0 578 299 578q16 0 34.5 -1.5t52.5 -8t63.5 -17.5t63 -33t57.5 -51t39.5 -75
t15.5 -103q0 -351 -136 -499q-83 -93 -242 -93q-36 0 -68 7t-66 27t-58 52.5t-39.5 88t-15.5 128.5z" />
    <glyph glyph-name="P" unicode="P" horiz-adv-x="601" 
d="M252 630q-4 -14 -15 -21v-196q17 -1 38 -8t47 -7q35 0 56 70.5t21 158.5q0 69 -14.5 116.5t-42.5 47.5q-36 0 -56 -19t-24 -40t-6 -56t-4 -46zM297 317q-37 0 -60 14v-302q0 -56 -17 -78.5t-75 -22.5q-57 0 -76 50t-19 165q0 70 9.5 215t9.5 198q0 15 -2 52.5t-2 64.5
q0 99 25 147t64 48q46 0 76 -24q41 26 100 26q111 0 175.5 -53.5t64.5 -168.5q0 -42 -6 -82.5t-24.5 -87t-47.5 -81t-79.5 -57.5t-115.5 -23z" />
    <glyph glyph-name="Q" unicode="Q" horiz-adv-x="661" 
d="M521 -138q-7 -4 -38 -20t-42.5 -21.5t-38.5 -17t-44 -16t-41 -9t-46 -4.5q-10 0 -26 2q-37 6 -37 58q0 6 4 34q6 23 39 23q3 0 6 -0.5t9 -1t11 -0.5q19 0 107.5 17t113.5 17q27 0 27 -38q0 -12 -4 -23zM359 45q95 18 95 300q0 48 -1.5 92.5t-9 106.5t-19.5 106.5
t-36 76.5t-56 32q-17 0 -34.5 -7.5t-27.5 -15.5l-9 -7q-3 -2 -8 -6t-18 -25.5t-23 -52.5t-18 -91.5t-8 -136.5q0 -83 8 -168q6 -65 22.5 -109.5t39.5 -64t41.5 -26.5t38.5 -7zM611 404q0 -73 -6.5 -131t-26 -119t-52.5 -101.5t-90.5 -66.5t-134.5 -26q-31 0 -60.5 4.5
t-65.5 19t-63 38.5t-48 67.5t-26 101.5q-8 99 -8 169q0 81 8 150t21.5 114t29 80.5t31.5 55t29.5 32t21.5 16.5l8 4q82 34 174 34q45 0 83 -11t74.5 -37.5t61 -79t30.5 -126.5q9 -105 9 -188z" />
    <glyph glyph-name="R" unicode="R" horiz-adv-x="630" 
d="M243 429q11 -18 65 -18q36 0 55.5 47.5t19.5 116.5q0 81 -25 144.5t-67 63.5q-33 0 -63 -16q15 -101 15 -338zM299 846q72 0 126 -43t78 -101t24 -117q0 -37 -4 -66.5t-15 -61t-34 -56t-58 -38.5q26 -35 79.5 -141t73.5 -132q26 -32 26 -59q0 -23 -25.5 -38.5
t-49.5 -15.5q-56 0 -106 99q-61 119 -102 268h-12q-37 0 -58 4l-12 -368q-30 -24 -71 -24q-112 0 -112 179q0 32 4 129t5 167q2 103 4 160.5t8 110.5t14 76t24.5 41.5t36.5 22.5t53 4q6 0 11 -7q42 7 92 7z" />
    <glyph glyph-name="S" unicode="S" horiz-adv-x="504" 
d="M335 848q29 0 51.5 -10t33 -24.5t15 -25t4.5 -16.5q0 -11 -9.5 -25.5t-27.5 -14.5q-8 0 -28 21.5t-42 21.5q-87 0 -87 -149q0 -70 16 -128.5t39.5 -98t46.5 -75t39 -77.5t16 -89q0 -101 -65 -153t-172 -52q-61 0 -95.5 33t-34.5 70q0 19 10 31t27 12q15 0 24 -10.5
t12.5 -23.5t14.5 -23.5t30 -10.5q33 0 45 19.5t12 60.5q0 35 -35 103t-70 148.5t-35 146.5q0 83 21 147.5t50.5 99.5t68.5 57t68.5 28.5t56.5 6.5z" />
    <glyph glyph-name="T" unicode="T" horiz-adv-x="732" 
d="M11 702v5q90 47 264.5 102t334.5 55q133 0 133 -83v-1q0 -37 -129 -37h-1q-38 0 -196 -29q26 -46 48 -307.5t31 -306.5q8 -40 8 -74q0 -89 -77 -89q-88 0 -106 233q-9 120 -9 272q0 104 6 254q-206 -37 -253 -37h-2q-22 0 -37 10.5t-15 32.5z" />
    <glyph glyph-name="U" unicode="U" horiz-adv-x="711" 
d="M594 -12q-12 -12 -25 -12q-25 0 -71 41q-22 19 -22 140v47q-91 -221 -258 -221q-171 0 -171 311q0 89 14 195.5t28 168.5l14 61q2 12 6.5 29t23 45.5t42.5 28.5q41 0 82 -9t41 -25q0 -74 -27.5 -306t-27.5 -308q0 -85 24 -85h3q60 13 120.5 106t99.5 281q5 87 5 143
q0 53 -4 82q-2 12 -2 34q0 46 18.5 68t47.5 22q108 0 108 -224q0 -5 -0.5 -16t-0.5 -17q-6 -202 -29 -383t-39 -197z" />
    <glyph glyph-name="V" unicode="V" horiz-adv-x="579" 
d="M64 802q15 15 31 15q23 0 68 -26q26 -16 46.5 -130t40 -275.5t34.5 -226.5q4 13 24.5 84.5t59 194t100.5 311.5q14 41 55 41q29 0 29 -32l-2 -18q-30 -143 -113 -419q-55 -185 -92 -258.5t-68 -73.5h-3q-1 0 -3 -0.5t-3 -0.5q-2 0 -12.5 -2t-19.5 -2q-98 0 -133 236
q-48 311 -48 503q0 70 9 79z" />
    <glyph glyph-name="W" unicode="W" horiz-adv-x="789" 
d="M84 769q0 28 29 33q60 10 106 10q20 0 34.5 -9.5t21.5 -22.5t11 -34.5t5 -37t1 -38.5q0 -3 -20.5 -183t-20.5 -264q0 -83 19 -83q16 0 34.5 50.5t34.5 130t26 136t18 109.5q4 26 27 44q29 21 56 21q17 0 32 -8q19 -10 29.5 -128t21.5 -229.5t29 -111.5q8 0 30 94.5
t41.5 223t21.5 206.5q1 25 5.5 41t13.5 22.5t15 8t16 1.5q18 0 32.5 -16.5t14.5 -55.5q0 -104 -19 -243.5t-58 -255.5t-84 -116q-35 0 -64 16t-47.5 38.5t-33 55.5t-22 60t-12 58.5t-5.5 43.5t-2 23q-1 -16 -3 -31.5t-9 -55.5t-15.5 -73t-24.5 -73.5t-35.5 -68.5t-49 -47.5
t-63.5 -19.5q-158 0 -158 386q0 67 4 143.5t10 149.5t7 100z" />
    <glyph glyph-name="X" unicode="X" horiz-adv-x="638" 
d="M67 813q22 8 46 8q16 0 43 -5q49 -10 184 -281q60 99 158 268q23 40 50 40q13 0 22.5 -8.5t9.5 -22.5q0 -8 -2.5 -16.5t-5.5 -13.5l-2 -5q-53 -121 -175 -351q105 -213 149 -269q42 -56 42 -99q0 -30 -26.5 -48t-60.5 -18q-99 0 -208 206q-8 14 -11 21
q-153 -261 -217 -261q-9 0 -16 4q-27 14 -27 28q0 3 0.5 6.5t2.5 8t3.5 8.5t5.5 11t7 12.5t8.5 15t9.5 17t11.5 20.5t13.5 22q17 30 34.5 58t47 75t57.5 93q-107 229 -174 434q-2 8 -2 11q0 23 22 31z" />
    <glyph glyph-name="Y" unicode="Y" horiz-adv-x="545" 
d="M51 786v14q0 26 38 26q17 0 25 -7.5t13 -29.5q53 -237 100 -401q28 158 70 283q54 161 146 161q73 0 73 -50q0 -25 -17 -52q-25 -43 -75 -210.5t-75 -217.5q3 -12 3 -28q0 -11 -3.5 -55.5t-3.5 -79.5q0 -80 -28.5 -125t-112.5 -45q-47 0 -47 167q0 61 6 137
q-52 52 -82 226q-30 178 -30 287z" />
    <glyph glyph-name="Z" unicode="Z" horiz-adv-x="574" 
d="M458 796q5 0 13 -2.5t26 -21.5t29 -52q1 -3 1 -10q0 -38 -57.5 -140t-140.5 -234.5t-113 -192.5q89 16 147 16q32 0 56.5 -6t38 -14.5t24 -21t14 -21.5t6.5 -20t4 -12q1 -3 1 -9q0 -13 -10 -23.5t-31 -10.5q-10 0 -27.5 2t-26.5 2q-35 0 -130 -10t-134 -10q-24 0 -41 1
q-31 0 -52 31t-21 62q0 76 78 208q102 172 267 389h-67q-235 0 -238 58q0 30 17.5 35t103.5 6q19 0 257 -2v-1q1 0 6 4z" />
    <glyph glyph-name="bracketleft" unicode="[" horiz-adv-x="379" 
d="M154 -47q-17 1 -22 1q-23 3 -39 16t-31 43.5t-22.5 90t-7.5 147.5q0 62 -3 215.5t-3 228.5q0 294 41 294q16 0 28 -4q72 3 91 3q113 0 113 -26q0 -31 -25.5 -42.5t-114.5 -13.5q30 -193 30 -325q0 -12 2.5 -123t2.5 -188q0 -160 -10 -236q40 2 66 2q109 0 109 -26
q0 -24 -12.5 -34.5t-56 -16t-136.5 -6.5z" />
    <glyph glyph-name="bracketright" unicode="]" horiz-adv-x="379" 
d="M314 -47q-13 0 -28 5q-50 -4 -97 -4q-108 0 -108 26q0 31 26 42.5t118 13.5l-10 70q-10 70 -15 128.5t-5 126.5q0 12 -2.5 121.5t-2.5 185.5q0 163 10 239q-42 -2 -70 -2q-110 0 -110 27q0 24 13 35t58 16.5t142 5.5q26 0 44 -9.5t35.5 -38t26.5 -91.5t9 -159
q0 -61 3 -212.5t3 -225.5q0 -300 -40 -300z" />
    <glyph glyph-name="underscore" unicode="_" horiz-adv-x="771" 
d="M706 -4q3 0 7 -1t11 -9.5t7 -22.5q-3 -17 -9.5 -23t-26.5 -6q-114 0 -229.5 -3.5t-207.5 -8t-107 -4.5h-11q-39 0 -51 8t-12 21q5 37 46.5 50.5t150.5 13.5q17 0 72.5 0.5t91.5 0.5q205 0 268 -16z" />
    <glyph glyph-name="grave" unicode="`" 
d="M183 788q16 0 28 -24.5t28.5 -63t38.5 -60.5q17 -17 17 -27q-21 -31 -47 -31q-37 0 -72 52t-35 105q0 20 11.5 34.5t30.5 14.5z" />
    <glyph glyph-name="a" unicode="a" 
d="M83 198q0 -35 11 -35q21 0 69 103.5t58 150.5q0 6 1 9q-6 -3 -15 -9.5t-33 -29t-42.5 -47t-33.5 -63.5t-15 -79zM584 369q10 0 15.5 -9t5.5 -21q0 -15 -7 -35.5t-14 -33.5l-7 -12q-145 -271 -243 -271q-53 0 -85.5 67t-32.5 193q-30 -82 -70 -134.5t-73 -52.5
q-13 0 -20 1t-18.5 7t-18 18t-11.5 36.5t-5 59.5q0 82 27.5 146t67.5 97.5t77 50.5t65 17q15 0 21 -6q2 0 5 0.5t4 0.5q10 0 23.5 -7t30 -22.5t27.5 -47t11 -72.5q0 -234 9 -234q39 0 151 182l34 57q13 25 31 25z" />
    <glyph glyph-name="b" unicode="b" horiz-adv-x="487" 
d="M187 32q31 0 54.5 38t33.5 86t10 93q0 65 -19 65q-45 0 -68.5 -71t-23.5 -148q0 -63 13 -63zM282 404q63 0 85 -13q50 -30 50 -148q0 -149 -62 -231.5t-178 -82.5q-26 0 -43 17q-15 1 -28.5 6.5t-30.5 18t-27.5 40t-10.5 65.5q0 12 -2.5 68t-2.5 100q0 271 85 621
q1 6 22 6q28 0 53.5 -13t25.5 -39q-1 -65 -7.5 -135t-14 -115.5t-20.5 -120t-19 -110.5q26 44 48.5 55t76.5 11z" />
    <glyph glyph-name="c" unicode="c" horiz-adv-x="439" 
d="M510 386q8 0 8 -20t-12 -53t-24 -57l-13 -23q-24 -46 -53 -85.5t-68 -78t-90 -60.5t-107 -22q-41 0 -70.5 15t-43.5 33t-21.5 45.5t-8.5 41t-1 29.5q0 17 2 45.5t11 79t24 91t44.5 71t68.5 30.5q38 0 66 -7.5t40.5 -19t18 -21t5.5 -17.5q0 -4 -4 -8t-9 -4q-4 0 -10 3
q-2 1 -10.5 6.5t-18 8t-24.5 2.5q-26 0 -56.5 -80t-30.5 -164q0 -48 18 -69.5t45 -21.5q94 0 251 222q59 88 73 88z" />
    <glyph glyph-name="d" unicode="d" horiz-adv-x="515" 
d="M140 111h3q34 5 63.5 66.5t29.5 121.5q0 55 -28 75q-6 4 -10 4q-27 0 -54 -76.5t-27 -138.5q0 -52 23 -52zM296 806q17 7 35 7q99 0 99 -253q0 -62 -6 -142q-8 -92 -8 -189q0 -55 3 -136t3 -109q0 -164 -86 -164q-35 0 -50 65t-20 224q-27 -44 -63.5 -69.5t-63.5 -25.5
q-133 0 -133 124q0 94 7.5 137.5t32.5 94.5q36 71 161 71q34 0 56 -4q5 325 33 369z" />
    <glyph glyph-name="e" unicode="e" horiz-adv-x="413" 
d="M216 424q0 23 -14 23q-18 0 -28 -20q-5 -11 -7 -25.5t-3 -36t-2 -32.5q54 13 54 91zM489 336q13 0 13 -15q0 -25 -21 -74q-19 -46 -49 -94t-69.5 -95t-89 -76.5t-98.5 -29.5q-17 0 -33 3t-39.5 17t-40.5 38t-29.5 71t-12.5 111q0 43 7.5 90t24.5 99.5t52.5 86t85.5 33.5
q11 0 21.5 -2t27 -8.5t26.5 -22.5t10 -40q0 -75 -37.5 -115t-81.5 -41q-4 -58 -4 -85q0 -125 39 -125q48 0 122.5 66t125.5 154q31 54 50 54z" />
    <glyph glyph-name="f" unicode="f" horiz-adv-x="423" 
d="M220 847q43 0 62 -18.5t19 -42.5q0 -13 -4.5 -22.5t-11.5 -9.5q-10 0 -13.5 4.5t-15.5 4.5q-18 0 -35 -34.5t-28.5 -108t-11.5 -170.5q0 -69 14 -247q190 59 276 169q15 19 24 19q8 0 8 -19q0 -14 -7.5 -32t-15.5 -28l-7 -11q-5 -6 -14.5 -16t-38.5 -36.5t-59 -49.5
t-73.5 -46t-84.5 -34q23 -226 23 -273q0 -87 -24 -119q-53 -75 -100 -75q-25 0 -25 23q0 6 -20.5 309.5t-20.5 466.5q0 188 59 292t125 104z" />
    <glyph glyph-name="g" unicode="g" horiz-adv-x="607" 
d="M141 -412q0 -23 6.5 -29.5t24.5 -6.5q32 0 69 237q-100 -93 -100 -201zM154 64q22 0 58 96t36 158q0 44 -23 44q-36 0 -73 -82t-37 -151q0 -65 39 -65zM340 527q17 20 44 20q29 0 51 -24.5t22 -71.5q0 -163 -25 -397q180 163 226 285q8 24 18 24q17 0 17 -37
q0 -35 -7 -42q-36 -115 -104 -197.5t-165 -157.5q-67 -471 -205 -471q-83 0 -129.5 40.5t-46.5 91.5q0 72 57 145.5t164 166.5l20 166q-63 -96 -149 -96h-2q-11 0 -25.5 2.5t-35.5 12t-38 25.5t-29 46.5t-12 70.5q0 172 76 255t198 83q33 0 63 -14q10 64 17 74z" />
    <glyph glyph-name="h" unicode="h" horiz-adv-x="644" 
d="M119 807q0 18 15.5 29t36.5 11q23 0 39.5 -14.5t16.5 -42.5q0 -15 -3 -87t-10.5 -196.5t-16.5 -231.5q48 65 103 65q148 0 148 -155q0 -27 -5 -68t-5 -49q0 -14 6 -14q37 0 94.5 62.5t97.5 125.5l39 62q20 34 36 34q2 0 6 -2q14 -8 14 -35l-4 -31q-2 -6 -6 -16.5
t-17.5 -40.5t-28.5 -57t-40 -60t-51.5 -57t-62 -40.5t-72.5 -16.5q-150 0 -150 170q0 23 2.5 56.5t2.5 40.5q0 14 -4 14q-44 0 -117 -137q-26 -231 -58 -249q-47 -42 -81 -42q-35 0 -35 62q0 136 34 461t76 449z" />
    <glyph glyph-name="i" unicode="i" horiz-adv-x="338" 
d="M167 638q11 0 17 -9t6 -21q0 -27 -22 -54.5t-44 -27.5q-57 0 -57 41q0 16 37.5 43.5t62.5 27.5zM51 430q2 20 23.5 33.5t45.5 13.5q21 0 34 -11.5t13 -35.5v-136q0 -201 17 -201q10 0 56.5 54t87.5 108l42 54q24 34 45 34q16 0 16 -19q0 -9 -3.5 -22t-7.5 -21l-3 -8
q-3 -7 -8 -18t-22.5 -44t-36.5 -63t-47.5 -66.5t-58 -63t-66.5 -44.5t-74 -18q-83 0 -83 193q0 58 7.5 128.5t15.5 111.5z" />
    <glyph glyph-name="j" unicode="j" horiz-adv-x="385" 
d="M127 702q-42 0 -42 25q0 19 25.5 37.5t51.5 18.5q21 0 45 -11t24 -30q0 -18 -39 -29t-65 -11zM125 484q54 0 75.5 -21.5t21.5 -71.5q0 -19 -9.5 -157.5t-9.5 -267.5q0 -94 -14.5 -168.5t-39.5 -121.5t-54.5 -79.5t-65.5 -48.5t-65.5 -22.5t-60.5 -6.5q-20 0 -38.5 2.5
t-27.5 4.5l-9 2q-28 4 -28 30q0 5 1 8q3 13 15.5 18.5t30 4.5t38.5 3t42.5 12t42 34t36 66.5t25 112t9.5 167.5q0 40 -4 126t-4 136q0 64 5.5 109.5t14 70t22 38t24.5 17t27 3.5z" />
    <glyph glyph-name="k" unicode="k" horiz-adv-x="569" 
d="M424 531q5 0 12 -1.5t18.5 -10.5t11.5 -24q0 -16 -83.5 -99.5t-163.5 -152.5q29 -20 53 -52t37.5 -57.5t34.5 -44.5t47 -19q36 0 71.5 20t61.5 48.5t47 57t31 48.5l11 20q21 42 40 42q5 0 9 -4q8 -8 8 -26q0 -9 -2 -19.5t-4 -16.5l-2 -6q-4 -11 -11 -28.5t-33.5 -62
t-57.5 -79t-84 -62.5t-112 -28q-25 0 -50 12t-42.5 27t-37.5 41.5t-29.5 42.5t-25 43.5t-17.5 31.5q-68 -191 -106 -191q-52 0 -52 106q0 46 9.5 111t24.5 130.5t29 119t28 102.5t15 55q11 46 41 68.5t63 22.5q29 0 46 -15.5t21 -31t4 -32.5q0 -13 -21.5 -101.5
t-50.5 -186.5q56 75 121 138.5t90 63.5z" />
    <glyph glyph-name="l" unicode="l" horiz-adv-x="405" 
d="M134 898q7 16 31 16q20 0 51 -16q39 -20 39 -144q0 -115 -50 -478q-15 -100 -15 -163q0 -83 27 -83q30 0 98.5 82t108.5 164q29 60 54 60q13 0 13 -19q0 -12 -4.5 -30t-8.5 -30l-5 -12q-3 -7 -7.5 -18t-20.5 -43.5t-33 -62.5t-43.5 -66t-52.5 -62t-59.5 -44t-66.5 -18
q-89 0 -128 51.5t-39 173.5q0 106 26.5 277.5t84.5 464.5z" />
    <glyph glyph-name="m" unicode="m" horiz-adv-x="775" 
d="M33 99q3 60 6 155q3 80 5 112t9 65.5t20 42.5t37 9q25 0 41.5 -13t24 -34t10 -38t2.5 -35l-1 -18q2 4 5.5 9.5t15 21t23 27t28.5 21t33 9.5q57 0 76 -33t19 -105l5 10q6 10 12 21.5t17 28t23 31.5t28.5 30.5t34 27t39 18.5t43.5 7q48 0 48 -113q0 -35 -5.5 -105t-5.5 -95
q0 -58 20 -58q9 0 18.5 4.5t20 14t19.5 19.5t20.5 26.5t19.5 29t19.5 33.5t18.5 33t18.5 34t16.5 31q32 62 52 62q11 0 11 -18q0 -13 -6 -33.5t-12 -35.5l-6 -14q-5 -12 -13.5 -31.5t-35.5 -69t-53.5 -87.5t-63 -69t-68.5 -31q-75 0 -105.5 39t-30.5 109q0 56 30 210
q-2 0 -7 -1t-20.5 -14t-33 -36.5t-44.5 -76t-56 -124.5q-1 -4 -4.5 -10.5t-17 -17t-32.5 -10.5h-1q-8 0 -17.5 3t-21.5 21.5t-12 50.5q0 35 14 84q27 85 27 127q0 23 -11 23q-8 0 -26 -34t-38 -112.5t-24 -172.5q0 -2 -0.5 -5t-3.5 -12t-9 -16.5t-19 -16.5t-31 -15
q-10 -3 -23 -3q-29 0 -51 20t-22 73q0 13 1 20z" />
    <glyph glyph-name="n" unicode="n" horiz-adv-x="504" 
d="M64 468q9 34 46 34q24 0 42.5 -20t18.5 -57l-7 -91q84 140 156 140q50 0 65.5 -41.5t15.5 -145.5q0 -24 -1 -91.5t-1 -111.5q0 -113 -75 -113q-18 0 -31.5 26t-13.5 63q0 52 9 160t9 138q0 42 -10 42q-23 0 -154 -280q-32 -149 -83 -149q-40 0 -57 13.5t-17 48.5
q0 29 11 82.5t35 156t42 196.5z" />
    <glyph glyph-name="o" unicode="o" horiz-adv-x="443" 
d="M217 452q-32 0 -40 -19q19 -72 80 -125q-3 57 -15 100.5t-25 43.5zM169 93q58 0 79 94q-59 27 -91 75q-4 -53 -4 -95q0 -74 16 -74zM195 512q7 0 18 -1.5t40 -13t51.5 -32t40.5 -64t18 -102.5q0 -17 -2 -45q16 -4 36 -4q89 0 120 90q7 24 22 24q1 0 2 -0.5t2 -0.5
q8 -3 8 -15q0 -8 -2.5 -18t-4.5 -16l-3 -7q1 -1 -6 -15t-22.5 -35.5t-37 -42t-55.5 -35t-72 -14.5h-1q-14 -51 -38 -89t-50 -55.5t-46.5 -25.5t-34.5 -8q-13 0 -31 4.5t-41.5 18.5t-43 35.5t-33 60t-13.5 86.5q0 76 15.5 142t31.5 94l16 29q-10 3 -10 20q0 35 126 35z" />
    <glyph glyph-name="p" unicode="p" horiz-adv-x="593" 
d="M224 55q63 41 83 92t20 139q0 49 -9.5 63.5t-29.5 14.5q-45 0 -79 -82q8 -77 15 -227zM296 432q159 0 159 -176q0 -120 -48 -190q62 45 119 117.5t84 122.5l26 51q23 48 43 48q3 0 5 -1q11 -6 11 -25q0 -11 -2.5 -24.5t-5.5 -22.5l-3 -10q-29 -79 -66.5 -141t-77.5 -99.5
t-78.5 -63.5t-78 -37.5t-66 -15.5t-53.5 -4q-7 0 -16.5 0.5t-11.5 0.5q-6 0 -8 -1q0 -20 1 -32q21 -150 21 -243q0 -35 -4 -52q-5 -25 -29.5 -44t-53.5 -19t-49 19q-4 0 -11 15t-21.5 145.5t-20.5 362.5q-22 272 -22 301q0 21 18 37.5t43 16.5q35 0 59 -30.5t37 -71.5
q42 66 100 66z" />
    <glyph glyph-name="q" unicode="q" horiz-adv-x="549" 
d="M159 94q5 0 11 3.5t15 14t16.5 27.5t12.5 48t5 70q0 51 -9 80.5t-17 36t-17 6.5q-23 0 -35.5 -60.5t-12.5 -132.5q0 -93 31 -93zM145 -359h-3q-32 0 -32 29v2q0 8 3.5 16.5t6.5 8.5q10 2 41.5 7.5t48.5 7.5q0 126 16 319q-35 -33 -67 -33h-5q-5 -1 -10 -1q-20 0 -39 6
t-43.5 23.5t-39.5 60.5t-15 106q0 46 9 91t28 86t53 66t78 25q58 0 91 -63l5 34q3 5 9 13t23.5 21t35.5 13q27 0 46 -13t27.5 -35t11.5 -41.5t3 -40.5l-2 -29q-36 -357 -48 -591q3 0 13.5 0.5t17.5 0.5q56 0 70 -33q-1 -21 -27 -25l-77 -13v-68q0 -66 -31.5 -98.5
t-71.5 -32.5q-21 0 -36 9.5t-15 24.5q-8 45 -10 150q-6 0 -29.5 -1.5t-35.5 -1.5z" />
    <glyph glyph-name="r" unicode="r" horiz-adv-x="287" 
d="M71 488q0 -21 13 -49q5 43 5 67q0 31 -10 31q-8 0 -8 -49zM87 270l-25 20q1 6 2 14q-5 7 -21.5 28t-23.5 30.5t-19.5 29t-18 34t-10.5 34t-5 39.5q0 26 10.5 61t34.5 35q6 0 36 7t48 7q65 0 65 -79q0 -97 -29 -175q71 -118 71 -211q0 -55 -11.5 -105t-25 -79t-25 -55
t-11.5 -38q0 -16 3 -26t7.5 -19t6.5 -16q1 -4 1 -12q0 -14 -6.5 -25t-12.5 -15l-7 -4q-8 -3 -21 -3q-15 0 -28.5 6.5t-29 23.5t-25 55t-9.5 93q0 41 52.5 142t52.5 125q0 37 -25 79z" />
    <glyph glyph-name="s" unicode="s" horiz-adv-x="497" 
d="M229 -25q0 26 -17 67q-49 -51 -49 -108q0 -20 9 -33.5t21 -13.5q14 0 25 22t11 66zM210 552q71 0 71 -24q0 -25 -26 -25q-1 0 -9 1t-15 1q-68 0 -68 -68q0 -33 16.5 -69.5t57 -100t53.5 -86.5q22 11 78 38t82.5 41.5t59.5 39t48 48.5q13 20 23 20q6 0 12 -4t6 -11
q0 -17 -25 -63q-13 -22 -43 -46t-58 -40t-77.5 -42t-74.5 -41q31 -71 31 -126q0 -59 -16.5 -100.5t-42 -59.5t-46.5 -25t-40 -7q-24 0 -39.5 3.5t-35.5 16t-30.5 44t-10.5 80.5q0 92 86 163q-14 24 -49 77t-54 85t-36.5 74t-17.5 74q0 132 190 132z" />
    <glyph glyph-name="t" unicode="t" horiz-adv-x="336" 
d="M373 658q29 0 30 -25q0 -10 -4.5 -19t-9.5 -9q-65 -18 -186 -23q-10 -130 -15 -383t-8 -309q-3 -47 -28.5 -78t-59.5 -31q-28 0 -50 22q-15 15 -15 196q0 260 24 584q-107 7 -149 30q-12 7 -16 19q-2 4 -2 9q0 7 7 24.5t11 17.5q2 1 7 1q4 0 20 -2q68 -15 128 -24
q21 250 43 250q26 12 55 12q76 0 76 -104q0 -28 -8 -74q-7 -32 -14 -95h5q44 0 86 3q12 1 29.5 3t28.5 3.5t15 1.5z" />
    <glyph glyph-name="u" unicode="u" horiz-adv-x="645" 
d="M194 360q0 -40 -13.5 -131t-13.5 -111t7 -20q2 0 3 1q42 22 88.5 104t80 158t42.5 81q22 13 51 13q61 0 61 -78q0 -34 -4 -110t-4 -106q0 -70 17 -70q25 0 65 61.5t79 142.5q35 75 56 75q14 0 14 -24q0 -45 -24 -105q-35 -93 -105 -188.5t-125 -95.5q-88 0 -88 150
q0 31 3.5 65t7.5 52l4 19q-2 -6 -5 -16t-15 -38.5t-26 -54.5t-38 -57.5t-50.5 -54.5t-64 -38.5t-78.5 -15.5q-102 0 -102 200q0 78 14 160t24 99q11 18 43 18q35 0 65.5 -23t30.5 -62z" />
    <glyph glyph-name="v" unicode="v" horiz-adv-x="527" 
d="M86 466q91 0 91 -217q0 -69 -14 -195q9 0 25.5 25.5t35 65t34.5 75.5t29 68l13 32q-17 25 -25 63q-4 24 -4 35q0 16 5 36q8 36 31.5 58t60.5 22q64 0 78 -39q4 -11 4 -25q0 -26 -29 -99q-2 -14 -2 -19q0 -37 20.5 -64t46.5 -27q14 0 25 8q43 30 61 30q20 0 20 -30
q0 -25 -18.5 -51t-50.5 -36q-18 -6 -38 -6q-37 0 -72 19t-55 48l-9 -21q-9 -22 -23 -53.5t-33 -70.5t-40.5 -77.5t-42.5 -70.5t-43 -51.5t-40 -19.5q-87 0 -87 311q0 19 0.5 50t0.5 42v2q0 17 1 38t4.5 58.5t14 61.5t25.5 24z" />
    <glyph glyph-name="w" unicode="w" horiz-adv-x="778" 
d="M68 495q9 28 27 42t40 14q24 0 41.5 -15.5t17.5 -40.5q0 -415 44 -415h1q18 0 46 68t58 164.5t31 98.5q5 12 13 18q33 23 58 23q26 0 26 -33q0 -25 -1.5 -62.5t-1.5 -51.5q0 -252 71 -252q22 0 36.5 42.5t20 125t7 146t1.5 161.5q0 83 22 83q60 0 60 -103v-69.5t-1 -70.5
t-3 -73.5t-5.5 -69t-9.5 -67t-13.5 -57.5t-19 -51.5t-25.5 -37.5t-33 -26t-41 -8q-117 0 -153 184q-20 -66 -44.5 -114.5t-44.5 -71.5t-37.5 -37t-27.5 -16l-9 -2q-55 0 -94.5 23.5t-60.5 65t-30 89.5t-9 106q0 148 43 290z" />
    <glyph glyph-name="x" unicode="x" horiz-adv-x="586" 
d="M624 292q22 36 45 36q18 0 18 -23q0 -27 -17 -56q-55 -107 -132 -193.5t-129 -86.5q-72 0 -136 99q-58 -116 -96.5 -157.5t-71.5 -41.5q-29 0 -46.5 13t-17.5 38q89 128 164 280q-5 13 -13 32t-13 30.5t-11.5 26t-11 23t-9.5 17t-9.5 12t-8.5 3.5q-8 0 -45 -72
q-21 -37 -42 -37q-5 0 -8 2q-7 4 -7 16q0 15 12 43q53 119 94 119q81 0 131 -88q14 33 32 78t21 53q17 42 57 42q25 0 45 -16t20 -37q0 -7 -3 -15q-58 -140 -113 -263q18 -60 35 -90.5t43 -30.5q33 0 102 77.5t121 166.5z" />
    <glyph glyph-name="y" unicode="y" horiz-adv-x="525" 
d="M281 -288q37 44 39 151q-42 -51 -42 -122zM121 514q43 0 43 -101q0 -51 -14 -165.5t-14 -147.5q0 -48 17 -48q29 0 57.5 90t42.5 180l14 89q3 40 25 60.5t51 20.5q25 0 43.5 -14t18.5 -35q0 -139 19 -346q118 154 152 239q9 25 27 25q17 0 17 -21l-3 -21
q-57 -180 -184 -329l12 -142q1 -8 1 -24q0 -85 -43.5 -133.5t-108.5 -48.5q-26 0 -44 11.5t-24.5 30t-9 31t-2.5 23.5q12 88 102 217q-4 47 -13 98.5t-15 78.5l-7 28q-18 -90 -62 -143.5t-91 -53.5q-43 0 -71.5 47.5t-28.5 138.5q0 365 93 365z" />
    <glyph glyph-name="z" unicode="z" horiz-adv-x="581" 
d="M138 142q20 20 47 50q-47 -26 -47 -50zM190 -238q-4 -12 -4 -16q0 -17 17 -17q29 0 63.5 42t45.5 116v1q-55 -41 -82 -67.5t-40 -58.5zM-21 205q2 9 10 34.5t33 75t57 91.5t87.5 74t119.5 32q6 0 16.5 -0.5t36.5 -7t46 -17.5t36.5 -35.5t16.5 -57.5q0 -71 -62 -162
q62 -39 77 -112q123 97 173 169q21 32 38 32q10 0 17.5 -9t7.5 -19q0 -25 -23 -57q-98 -129 -209 -229q-1 -47 -6.5 -88.5t-23 -94.5t-44.5 -90.5t-77 -63.5t-117 -26q-3 1 -8.5 2.5t-19.5 10t-24.5 20.5t-19.5 36t-9 55v2q1 56 57.5 115t163.5 140q11 110 11 116
q0 22 -7 37q-100 -112 -192 -112h-9q-10 0 -19 2t-20.5 8.5t-18.5 22t-7 38.5q0 33 54.5 79t125.5 49q72 93 72 136q0 38 -53 38q-41 0 -80 -24.5t-71.5 -68.5t-52.5 -77t-42 -78q-3 -17 -24 -17q-20 0 -20 18q0 6 3 13z" />
    <glyph glyph-name="braceleft" unicode="{" horiz-adv-x="326" 
d="M311 -24q19 0 21 -17q0 -24 -28.5 -40.5t-66.5 -16.5q-83 0 -136.5 54t-53.5 119q0 45 31.5 118t63 131.5t31.5 69.5q0 17 -12 20h-6q-27 0 -31 20q4 35 31 35h6q12 3 12 19q0 14 -10 34.5t-34.5 63t-43.5 81.5q-38 77 -38 140t53 118t137 55q38 0 66.5 -15.5t28.5 -37.5
v-4q-2 -17 -21 -17q-3 0 -20 4t-34 4q-33 0 -59 -14.5t-26 -46.5q0 -37 39 -134q47 -115 47 -185q0 -62 -32 -93q32 -29 32 -92q0 -53 -21.5 -120t-43 -121.5t-21.5 -78.5q0 -32 26 -46.5t59 -14.5q15 0 32.5 4t21.5 4z" />
    <glyph glyph-name="braceright" unicode="}" horiz-adv-x="304" 
d="M20 879q-18 0 -21 17q0 16 9 26q26 31 86 31q72 0 131 -50t59 -124q0 -67 -37 -137q-3 -6 -28.5 -48.5t-42.5 -78t-17 -53.5q0 -17 12 -20h5q12 0 22 -6.5t10 -21.5q0 -13 -4 -17.5t-17 -6t-21 -5.5q-7 -6 -7 -18q0 -16 31 -73.5t62.5 -128t31.5 -116.5q0 -71 -58 -122.5
t-132 -51.5q-33 0 -63 13.5t-32 43.5q3 17 21 17q2 0 16 -2q18 -6 38 -6q34 0 59.5 15t25.5 46q0 37 -39 134q-16 40 -19 51q-28 70 -28 136q0 62 32 91q-32 29 -32 92q0 71 47 186q39 98 39 134q0 31 -25 46t-60 15q-9 0 -26.5 -4t-27.5 -4z" />
    <glyph glyph-name="asciitilde" unicode="~" horiz-adv-x="964" 
d="M841 276q0 -49 -40 -95.5t-121 -46.5q-65 0 -136.5 21t-132.5 42.5t-98 21.5q-19 0 -49 -23t-40 -23q-14 0 -22.5 10.5t-8.5 26.5q0 70 59.5 111.5t124.5 41.5q39 0 92 -24.5t112 -49.5t111 -25q18 0 36.5 6t32.5 14t25.5 16t18 14t7.5 6q13 0 21 -12t8 -32z" />
    <glyph glyph-name="exclamdown" unicode="&#xa1;" horiz-adv-x="301" 
d="M188 829q25 0 42.5 -18t17.5 -44q0 -19 -14.5 -32t-34.5 -13q-25 0 -45.5 18t-20.5 40q0 20 16.5 33.5t38.5 15.5zM160 609q16 0 35 -18q22 -21 22 -152q0 -67 -7.5 -219t-7.5 -205q0 -31 1 -44q0 -5 0.5 -13t0.5 -12q0 -75 -18 -101.5t-49 -26.5q-102 0 -102 164
q0 31 5 84q15 154 29 259t24.5 160.5t23 84t21 34t22.5 5.5z" />
    <glyph glyph-name="cent" unicode="&#xa2;" horiz-adv-x="374" 
d="M237 768q37 0 37 -88q0 -53 -10 -89q81 -26 81 -111q0 -38 -11 -56t-27 -18t-28 14.5t-12 35.5q0 50 -32 50q-36 0 -61.5 -51.5t-25.5 -115.5q0 -63 28 -105.5t85 -42.5q14 0 45.5 15t40.5 15q8 0 12.5 -10t4.5 -20q0 -25 -24 -49t-70 -32q3 -27 3 -63q0 -90 -41 -90
q-5 0 -11 2.5t-15 17.5t-10 41q0 4 -0.5 13t-0.5 14q0 37 4 64q-25 6 -49 23t-47.5 47.5t-38 83.5t-14.5 121t16 114t42.5 66t47.5 27t44 8q-5 25 -5 79q0 90 42 90z" />
    <glyph glyph-name="sterling" unicode="&#xa3;" horiz-adv-x="633" 
d="M412 319q27 0 38.5 -8t15.5 -32q0 -9 -4 -14q-12 -13 -77 -13h-49q1 -10 1 -32q0 -86 -20 -148q24 -4 91 -24.5t108 -20.5q24 0 55.5 15.5t47.5 15.5q22 0 22 -22q0 -13 -7 -28q-17 -38 -50 -66t-79 -28q-129 0 -232 72q-50 -61 -122 -61q-34 0 -56 25t-22 63q0 32 26 54
q28 22 82 24q7 24 7 51q0 48 -22 116l-110 3q-43 1 -46 24q0 16 7 29t23 13h4q9 0 99 -6q-2 5 -6.5 17.5t-6.5 19.5q-12 0 -37 0.5t-38 0.5q-25 0 -34.5 3t-10.5 16v4q0 12 10 19t24 7h2q25 2 67 3q-18 62 -18 116q0 290 279 290q75 0 108 -29t33 -65t-26 -36q-10 0 -46 21
t-65 21q-41 0 -70.5 -41.5t-29.5 -101.5q0 -18 1.5 -35.5t3 -29.5t6 -30.5t6.5 -26t8 -29t8 -27.5q14 0 47 1.5t54 1.5q27 0 38.5 -7.5t15.5 -31.5q0 -9 -4 -14q-10 -11 -59 -11q-30 0 -78 3l6 -35q34 2 45 2q28 2 36 2z" />
    <glyph glyph-name="yen" unicode="&#xa5;" horiz-adv-x="547" 
d="M451 175q27 0 38.5 -7.5t15.5 -31.5q-2 -25 -48 -25q-27 0 -75 2v-22q0 -34 -3 -59t-13 -51t-27 -42.5t-46.5 -27t-69.5 -10.5q-53 0 -53 185v36q-12 0 -37 0.5t-39 0.5q-25 0 -34.5 3t-10.5 16v4q0 10 6 16q9 10 29 10h2h4q3 1 10.5 1.5t17 1t24.5 1t30 0.5l3 41l-91 3
q-45 2 -46 29v5q0 25 34 25h2q33 3 91 4q-41 67 -66 218q-36 207 -36 328q0 39 45 39q18 0 27 -8.5t14 -32.5q37 -163 62.5 -263.5t43 -160t19.5 -68.5q26 200 67 354q46 179 127 179q65 0 65 -55q0 -26 -15 -59q-22 -48 -65 -232t-64 -241q3 0 7.5 0.5t6.5 0.5q7 0 19 0.5
t17 0.5q27 0 38.5 -8t15.5 -32q0 -24 -21.5 -30.5t-68.5 -6.5h-16q0 -8 -2 -34q44 3 66 3z" />
    <glyph glyph-name="section" unicode="&#xa7;" horiz-adv-x="601" 
d="M307 260q0 39 -19 70t-55 67q-21 -29 -21 -79q0 -15 5.5 -28t22 -27t24 -19.5t32.5 -22.5q11 12 11 39zM477 325q0 -121 -114 -159q35 -40 35 -93q0 -83 -54.5 -127t-136.5 -44q-56 0 -84.5 27t-28.5 59q0 17 8.5 27.5t20.5 10.5t19 -9t10 -20.5t13.5 -20.5t29.5 -9
q40 0 40 68q0 32 -20.5 68.5t-44.5 65t-44.5 69.5t-20.5 81q0 80 72 137q-1 1 -1 2q-53 52 -53 128q0 91 55.5 150t147.5 59q33 0 54.5 -15t27 -27.5t5.5 -20.5t-7 -22t-16 -14q-6 0 -25.5 19t-41.5 19q-27 0 -48 -32t-21 -73q0 -37 23 -68t56 -53.5t65.5 -46t55.5 -58.5
t23 -78z" />
    <glyph glyph-name="dieresis" unicode="&#xa8;" 
d="M48 611q0 32 25.5 56t58.5 24q43 0 43 -42q0 -37 -20.5 -56t-47.5 -19q-59 0 -59 37zM351 692q21 0 43 -14t22 -35q0 -24 -25.5 -44.5t-57.5 -20.5q-25 0 -38 12t-13 31q0 30 19 50.5t50 20.5z" />
    <glyph glyph-name="copyright" unicode="&#xa9;" horiz-adv-x="767" 
d="M616 157q31 24 31 109q0 56 -16 118t-46 119t-81 94t-114 37q-67 0 -143 -43q-57 -33 -85 -99t-28 -146q0 -56 12 -105.5t37 -92t70 -67.5t105 -25q130 0 258 101zM244 650q91 42 169 42q59 0 109 -23.5t85 -62t60 -88.5t36.5 -104t11.5 -108q0 -143 -71 -205
q-128 -110 -292 -110q-145 0 -226.5 97.5t-81.5 251.5q0 97 47.5 179t152.5 131zM373 526q13 0 28.5 -3t37 -11t35.5 -27.5t14 -47.5t-10 -41.5t-24 -13.5q-13 0 -24 11t-11 26q0 37 -29 37q-32 0 -54.5 -38.5t-22.5 -86.5q0 -47 25 -78.5t75 -31.5q12 0 40.5 11.5
t36.5 11.5q4 0 6 -2q9 -8 9 -21q0 -24 -31.5 -44t-91.5 -20q-21 0 -45.5 10t-51 31.5t-43.5 65.5t-17 102q0 44 12 76t27.5 47.5t39 24.5t37.5 10.5t32 1.5z" />
    <glyph glyph-name="ordfeminine" unicode="&#xaa;" horiz-adv-x="555" 
d="M149 414q0 -25 8 -25q14 0 48 73t40 105q0 4 1 6q-4 -2 -10.5 -7t-23 -20.5t-29.5 -32.5t-23.5 -44t-10.5 -55zM477 486q21 0 21 -15q0 -7 -4 -16t-11 -20t-8 -14q-90 -155 -150 -155q-37 0 -60 46.5t-23 135.5q-21 -57 -49 -94t-51 -37q-11 0 -17.5 1.5t-15.5 8.5
t-13.5 26t-4.5 49q0 57 19 102t47.5 68.5t54.5 35.5t45 12q11 0 14 -4q1 0 3.5 0.5t3.5 0.5q10 0 23 -8t27 -33.5t14 -63.5q0 -164 6 -164q25 0 90 101q1 1 5 8.5t6.5 10.5t7 8.5t9.5 7.5t11 2z" />
    <glyph glyph-name="guillemotleft" unicode="&#xab;" horiz-adv-x="674" 
d="M654 414q-1 -20 -27 -42t-88 -61q-59 -39 -74 -50q84 -78 138 -120q31 -23 31 -55q0 -19 -13.5 -32t-33.5 -13q-31 0 -72 29q-89 63 -134 110t-45 88v8q3 20 15 34t38.5 30.5t33.5 22.5q149 103 187 103q5 0 7 -1q18 0 27.5 -15t9.5 -36zM390 422q0 -16 -24 -42.5
t-65.5 -63.5t-56.5 -52q40 -60 76 -102q3 -4 25 -24t37 -37.5t15 -27.5q0 -19 -13.5 -32t-33.5 -13q-14 0 -65 40t-82 67q-83 74 -83 133q0 23 10 38.5t36 36.5q41 28 74.5 52.5t51 38t30 23.5t17 13.5t7.5 3.5q21 0 32.5 -14.5t11.5 -37.5z" />
    <glyph glyph-name="registered" unicode="&#xae;" horiz-adv-x="589" 
d="M278 667q2 -1 23 -1q16 0 16 15q0 8 -6 14t-16 6h-19q2 -22 2 -34zM282 754q62 0 86 -22t24 -52q0 -47 -50 -61q7 -7 19 -27t17 -26q11 -14 11 -25q0 -8 -5 -12t-9 -4t-10.5 -0.5t-8.5 -0.5q-11 0 -40 25q-27 24 -39 44l-4 -71q-11 -6 -25 -6q-13 0 -24 7q-17 10 -17 37
q0 8 1.5 33t2.5 45q2 75 9 94t36 20q14 2 26 2zM448 519q19 15 19 68q0 49 -16.5 100t-55 91.5t-90.5 40.5q-73 0 -116.5 -52.5t-43.5 -129.5q0 -75 34 -128t105 -53q83 0 164 63zM60 637q0 101 78 175t181 74q68 0 120 -45t76.5 -108t24.5 -129q0 -85 -41 -126
q-46 -46 -105 -70.5t-117 -24.5q-99 0 -158 74t-59 180z" />
    <glyph glyph-name="macron" unicode="&#xaf;" 
d="M373 630q11 0 11 -25q-1 -20 -16 -20q-50 0 -99.5 -2.5t-93.5 -6.5t-46 -4h-5q-28 0 -28 22q2 28 20.5 38t66.5 10q7 0 32 0.5t40 0.5q90 0 118 -13z" />
    <glyph glyph-name="degree" unicode="&#xb0;" horiz-adv-x="328" 
d="M176 580q-17 0 -26 -18.5t-9 -37.5q0 -20 8 -37.5t22 -17.5q15 0 26 22t11 46q0 19 -9 31t-23 12zM276 532q0 -46 -33.5 -84.5t-80.5 -38.5q-43 0 -71 43.5t-28 92.5q0 34 25 56.5t52 30t52 7.5q36 0 60 -28t24 -79z" />
    <glyph glyph-name="twosuperior" unicode="&#xb2;" horiz-adv-x="345" 
d="M174 812q38 0 54.5 -33t16.5 -79v-2q0 -37 -12 -74.5t-26 -60t-27.5 -40t-13.5 -18.5h6q96 0 96 -21q0 -17 -24.5 -24.5t-85.5 -7.5q-43 0 -60.5 10.5t-17.5 36.5q0 16 51 117t51 129q0 19 -17 19t-29 -22q-13 -24 -32 -24q-9 0 -9 14q0 25 18 49q26 31 61 31z" />
    <glyph glyph-name="threesuperior" unicode="&#xb3;" horiz-adv-x="345" 
d="M210 658q74 -32 74 -106q0 -48 -37.5 -78.5t-98.5 -30.5q-28 0 -52.5 10.5t-24.5 35.5q0 7 5 12.5t13 5.5q6 0 19 -5q14 -8 26 -8q24 0 43.5 14.5t19.5 46.5q0 50 -55 68q-10 3 -17.5 11.5t-7.5 17.5q0 14 18 21q14 5 26 23t12 43q0 15 -6 23.5t-10.5 10t-8.5 1.5
q-8 0 -17 -7q-12 -4 -15 -4q-8 0 -15 6.5t-4 14.5q6 11 35 22t49 11q25 0 44 -26t19 -69q0 -16 -4.5 -28t-7.5 -16.5t-12 -11.5t-10 -8z" />
    <glyph glyph-name="acute" unicode="&#xb4;" 
d="M296 746q14 0 23 -12t9 -28q0 -39 -30 -93.5t-67 -54.5q-21 0 -38 24q2 3 15 17t25.5 33t18.5 42q20 72 44 72z" />
    <glyph glyph-name="paragraph" unicode="&#xb6;" horiz-adv-x="711" 
d="M535 916q19 -17 19 -32q0 -25 -67 -25q-27 0 -54 -5q-32 -31 -52.5 -111t-20.5 -169q0 -144 49 -211q22 -3 49 -3q16 0 40 -2q1 18 1 53q0 131 -14 240q-2 20 -2 25q0 24 7.5 38t14.5 16l7 1q122 0 122 -402q0 -60 -7.5 -117t-30.5 -122t-59 -113t-99 -80t-145 -32
q-86 0 -166.5 51.5t-101.5 112.5q-5 14 -5 33q0 34 20 54q6 6 12 6q8 0 17.5 -16.5t25 -40t39.5 -46.5t71.5 -39.5t110.5 -16.5q149 0 177 308q-40 -2 -62 -2q-47 0 -88 6t-84.5 24.5t-74.5 47.5t-51 79t-20 115q0 96 24 168t58.5 112t83 64.5t88.5 31.5t83 7q22 0 43.5 -2
t31.5 -4z" />
    <glyph glyph-name="periodcentered" unicode="&#xb7;" horiz-adv-x="275" 
d="M170 294q33 -14 33 -41q0 -31 -35.5 -63t-63.5 -32q-27 0 -49.5 24t-22.5 40q0 19 29.5 48.5t74.5 29.5q16 0 34 -6z" />
    <glyph glyph-name="cedilla" unicode="&#xb8;" horiz-adv-x="439" 
d="M239 -102q0 -2 0.5 -6t0.5 -5q0 -38 -28 -60t-76 -22q-20 0 -34 9t-14 22q0 20 33 20h9l6 -1q12 0 23 10.5t11 24.5q-2 17 -10 25t-17 8t-16 4.5t-7 15.5q0 20 31 41t32 29q0 12 13 12q4 0 9 -3q23 -21 23 -27v-4q0 -2 -2 -7t-8.5 -14t-15.5 -17q33 -19 37 -55z" />
    <glyph glyph-name="onesuperior" unicode="&#xb9;" horiz-adv-x="319" 
d="M168 775q63 0 63 -264q0 -75 -6 -102q-11 -39 -43 -39q-16 0 -24 10q-22 22 -22 122q0 36 4.5 102.5t5.5 95.5l-20 -29q-25 -39 -41.5 -58t-30.5 -19q-6 0 -12 6q-3 2 -3 6q0 7 7 22q16 41 55 94t67 53z" />
    <glyph glyph-name="ordmasculine" unicode="&#xba;" horiz-adv-x="443" 
d="M190 561q-23 0 -28 -13q13 -50 56 -88q-2 41 -10.5 71t-17.5 30zM156 310q41 0 56 66q-41 18 -64 52q-3 -42 -3 -66q0 -52 11 -52zM175 603q5 0 13 -1t28 -9t35.5 -22t28 -45t12.5 -72q0 -6 -0.5 -16.5t-0.5 -14.5q12 -3 25 -3q14 0 29 5q16 -11 16 -26q0 -20 -25.5 -29
t-53.5 -10h-1q-18 -66 -55 -95t-63 -29q-9 0 -22 3t-29.5 13t-30 25t-23 41.5t-9.5 60.5q0 53 11 99.5t22 66.5l11 20q-7 2 -7 14q0 24 89 24z" />
    <glyph glyph-name="guillemotright" unicode="&#xbb;" horiz-adv-x="591" 
d="M281 87q0 16 24 42.5t65.5 63.5t56.5 52q-31 47 -70 92q-2 3 -26 26t-40.5 43t-16.5 30q0 19 13.5 32t33.5 13q14 0 65 -40t82 -67q83 -74 83 -133q0 -23 -10 -38.5t-36 -36.5q-41 -28 -74.5 -52.5t-51 -38t-30 -23.5t-17 -13.5t-7.5 -3.5q-21 0 -32.5 14.5t-11.5 37.5z
M159 447q91 -65 135 -112t44 -94q-1 -15 -13 -30t-23 -23t-33 -22q-171 -115 -205 -115h-2q-4 0 -6 1q-18 0 -27 15t-9 36q1 20 26.5 41.5t87.5 61.5q54 34 74 50q-76 73 -137 119q-31 26 -31 56q0 19 13.5 32t33.5 13q31 0 72 -29z" />
    <glyph glyph-name="onequarter" unicode="&#xbc;" horiz-adv-x="751" 
d="M152 804q63 0 63 -264q0 -75 -6 -102q-11 -39 -43 -39q-16 0 -24 10q-22 22 -22 122q0 36 4.5 102.5t5.5 95.5l-20 -29q-25 -38 -41.5 -57.5t-30.5 -19.5q-6 0 -12 6q-3 1 -3 6q0 7 7 22q16 41 55 94t67 53zM659 196q37 -2 37 -32q0 -9 -39 -17q-6 -112 -25 -131
q-9 -7 -14 -7q-8 0 -15 7q-19 18 -19 120q-22 -2 -60 -2q-81 0 -81 27q0 43 36 127t56 84q23 0 34 -15q10 -16 10 -30q0 -12 -27 -76q-22 -51 -22 -59q38 0 54 1q2 54 2 60q0 62 6.5 96.5t15 43t21.5 8.5h1q20 0 26 -59q3 -32 3 -146zM129 -65q81 260 200 558q16 40 33 83.5
t27.5 72t22 58.5t19 48t16 36t15.5 27.5t15 17.5t15.5 11t17.5 3q34 0 34 -36q0 -55 -55.5 -200t-145 -358.5t-134.5 -343.5q-13 -37 -47 -37q-16 0 -27 8.5t-11 24.5z" />
    <glyph glyph-name="onehalf" unicode="&#xbd;" horiz-adv-x="711" 
d="M149 -95q81 260 200 558q16 40 33 83.5t27.5 72t22 58.5t19 48t16 36t15.5 27.5t15 17.5t15.5 11t17.5 3q34 0 34 -36q0 -55 -55.5 -200t-145 -358.5t-134.5 -343.5q-13 -37 -47 -37q-16 0 -27 8.5t-11 24.5zM564 333q38 0 54.5 -33t16.5 -79v-2q0 -37 -12 -74.5t-26 -60
t-27.5 -40t-13.5 -18.5h6q96 0 96 -21q0 -17 -24.5 -24.5t-85.5 -7.5q-43 0 -60.5 10.5t-17.5 36.5q0 16 51 117t51 129q0 19 -17 19t-29 -22q-13 -24 -32 -24q-9 0 -9 14q0 25 18 49q26 31 61 31zM168 775q63 0 63 -264q0 -75 -6 -102q-11 -39 -43 -39q-16 0 -24 10
q-22 22 -22 122q0 36 4.5 102.5t5.5 95.5l-20 -29q-25 -39 -41.5 -58t-30.5 -19q-6 0 -12 6q-3 2 -3 6q0 7 7 22q16 41 55 94t67 53z" />
    <glyph glyph-name="threequarters" unicode="&#xbe;" horiz-adv-x="805" 
d="M713 216q37 -2 37 -32q0 -9 -39 -17q-6 -112 -25 -131q-9 -7 -14 -7q-8 0 -15 7q-19 18 -19 120q-22 -2 -60 -2q-81 0 -81 27q0 43 36 127t56 84q23 0 34 -15q10 -16 10 -30q0 -12 -27 -76q-22 -51 -22 -59q38 0 54 1q2 54 2 60q0 62 6.5 96.5t15 43t21.5 8.5h1
q20 0 26 -59q3 -32 3 -146zM183 -45q81 260 200 558q16 40 33 83.5t27.5 72t22 58.5t19 48t16 36t15.5 27.5t15 17.5t15.5 11t17.5 3q34 0 34 -36q0 -55 -55.5 -200t-145 -358.5t-134.5 -343.5q-13 -37 -47 -37q-16 0 -27 8.5t-11 24.5zM210 658q74 -32 74 -106
q0 -48 -37.5 -78.5t-98.5 -30.5q-28 0 -52.5 10.5t-24.5 35.5q0 7 5 12.5t13 5.5q6 0 19 -5q14 -8 26 -8q24 0 43.5 14.5t19.5 46.5q0 50 -55 68q-10 3 -17.5 11.5t-7.5 17.5q0 14 18 21q14 5 26 23t12 43q0 15 -6 23.5t-10.5 10t-8.5 1.5q-8 0 -17 -7q-12 -4 -15 -4
q-8 0 -15 6.5t-4 14.5q6 11 35 22t49 11q25 0 44 -26t19 -69q0 -16 -4.5 -28t-7.5 -16.5t-12 -11.5t-10 -8z" />
    <glyph glyph-name="questiondown" unicode="&#xbf;" horiz-adv-x="421" 
d="M186 730q-25 0 -43 15.5t-18 40.5q0 23 22 38t48 15t45.5 -14t19.5 -34q0 -24 -24 -42.5t-50 -18.5zM379 180q14 0 22 -19t8 -50q0 -46 -15.5 -92t-55.5 -82.5t-95 -36.5q-243 0 -243 254q0 60 21 122t47 106.5t47 102t21 109.5q0 76 56 76q32 0 56.5 -30.5t24.5 -102.5
q0 -87 -46.5 -232.5t-46.5 -201.5q0 -99 73 -99q27 0 44 27.5t23.5 60.5t21 60.5t37.5 27.5z" />
    <glyph glyph-name="Agrave" unicode="&#xc0;" horiz-adv-x="557" 
d="M247 646q5 -103 20 -301q-9 1 -25 1q-34 0 -69 -6q40 176 74 306zM31 30q0 -42 36 -42q21 0 26.5 8t13.5 43l47 215q45 -3 126 -3q48 -319 147 -319q38 0 53.5 18.5t15.5 57.5q0 34 -12 74q-20 65 -43 252t-47 337.5t-53 170.5q-37 24 -67 24q-44 0 -66 -21
q-67 -62 -117 -351q-22 -121 -30 -168.5t-19 -140t-11 -155.5zM243 1122q16 0 28 -24.5t28.5 -63t38.5 -60.5q17 -17 17 -27q-21 -31 -47 -31q-37 0 -72 52t-35 105q0 20 11.5 34.5t30.5 14.5z" />
    <glyph glyph-name="Aacute" unicode="&#xc1;" horiz-adv-x="557" 
d="M247 646q-34 -130 -74 -306q35 6 69 6l25 -1q-15 198 -20 301zM31 30q0 63 11 155.5t19 140t30 168.5q50 289 117 351q22 21 66 21q30 0 67 -24q29 -20 53 -170.5t47 -337.5t43 -252q12 -40 12 -74q0 -39 -15.5 -57.5t-53.5 -18.5q-99 0 -147 319q-81 0 -126 3l-47 -215
q-8 -35 -13.5 -43t-26.5 -8q-36 0 -36 42zM317 1099q14 0 23 -12t9 -28q0 -39 -30 -93.5t-67 -54.5q-21 0 -38 24q2 3 15 17t25.5 33t18.5 42q20 72 44 72z" />
    <glyph glyph-name="Acircumflex" unicode="&#xc2;" horiz-adv-x="557" 
d="M247 646q-34 -130 -74 -306q35 6 69 6l25 -1q-15 198 -20 301zM31 30q0 63 11 155.5t19 140t30 168.5q50 289 117 351q22 21 66 21q30 0 67 -24q29 -20 53 -170.5t47 -337.5t43 -252q12 -40 12 -74q0 -39 -15.5 -57.5t-53.5 -18.5q-99 0 -147 319q-81 0 -126 3l-47 -215
q-8 -35 -13.5 -43t-26.5 -8q-36 0 -36 42zM348 1038q81 -117 81 -143q0 -19 -25 -21h-2q-13 0 -36 24t-54.5 64t-42.5 52q-43 -38 -93 -109q-20 -29 -42 -29t-22 24q0 32 22 64q80 118 144 118q39 0 70 -44z" />
    <glyph glyph-name="Atilde" unicode="&#xc3;" horiz-adv-x="557" 
d="M472 1036q17 0 17 -26q0 -29 -25 -60.5t-74 -31.5q-46 0 -133 39t-120 39q-17 0 -24 -17.5t-7 -37.5q0 -11 3 -23t3 -15q0 -14 -17 -15q-15 0 -25.5 20.5t-10.5 46.5q0 60 37.5 98t86.5 38q41 0 116 -40t98 -40q11 0 22.5 2.5t20.5 6t16 7.5t12 7zM247 646
q-34 -130 -74 -306q35 6 69 6l25 -1q-15 198 -20 301zM31 30q0 63 11 155.5t19 140t30 168.5q50 289 117 351q22 21 66 21q30 0 67 -24q29 -20 53 -170.5t47 -337.5t43 -252q12 -40 12 -74q0 -39 -15.5 -57.5t-53.5 -18.5q-99 0 -147 319q-81 0 -126 3l-47 -215
q-8 -35 -13.5 -43t-26.5 -8q-36 0 -36 42z" />
    <glyph glyph-name="Adieresis" unicode="&#xc4;" horiz-adv-x="557" 
d="M247 646q-34 -130 -74 -306q35 6 69 6l25 -1q-15 198 -20 301zM31 30q0 63 11 155.5t19 140t30 168.5q50 289 117 351q22 21 66 21q30 0 67 -24q29 -20 53 -170.5t47 -337.5t43 -252q12 -40 12 -74q0 -39 -15.5 -57.5t-53.5 -18.5q-99 0 -147 319q-81 0 -126 3l-47 -215
q-8 -35 -13.5 -43t-26.5 -8q-36 0 -36 42zM86 947q0 32 25.5 56t58.5 24q43 0 43 -42q0 -37 -20.5 -56t-47.5 -19q-59 0 -59 37zM389 1028q21 0 43 -14t22 -35q0 -24 -25.5 -44.5t-57.5 -20.5q-25 0 -38 12t-13 31q0 30 19 50.5t50 20.5z" />
    <glyph glyph-name="Aring" unicode="&#xc5;" horiz-adv-x="557" 
d="M247 646q-34 -130 -74 -306q35 6 69 6l25 -1q-15 198 -20 301zM31 30q0 63 11 155.5t19 140t30 168.5q50 289 117 351q22 21 66 21q30 0 67 -24q29 -20 53 -170.5t47 -337.5t43 -252q12 -40 12 -74q0 -39 -15.5 -57.5t-53.5 -18.5q-99 0 -147 319q-81 0 -126 3l-47 -215
q-8 -35 -13.5 -43t-26.5 -8q-36 0 -36 42zM277 1079q-18 0 -18 -46q0 -45 13 -45q9 0 15 17.5t6 38.5q0 35 -16 35zM377 1041q0 -46 -33.5 -84.5t-80.5 -38.5q-43 0 -71 43.5t-28 92.5q0 34 25 56.5t52 30t52 7.5q36 0 60 -28t24 -79z" />
    <glyph glyph-name="AE" unicode="&#xc6;" horiz-adv-x="795" 
d="M283 410q3 41 3 76t-3 73.5t-5.5 57.5t-8.5 57.5t-7 41.5q-51 -184 -82 -306h103zM647 342q-56 -19 -215 -26q18 -257 135 -257q33 0 55.5 7t30.5 15t20.5 15t29.5 7q11 0 26.5 -10t15.5 -19q0 -99 -156 -99q-148 0 -226 91t-83 246h-124q-15 -62 -60 -268
q-8 -35 -13.5 -42.5t-26.5 -7.5q-36 0 -36 42v7q6 155 60 456q24 135 51.5 210.5t51 96.5t55.5 21q28 -1 36 -4q8 3 51 3q109 0 166.5 -4.5t206.5 -24.5q28 -4 37 -12t10 -24v-1q0 -17 -10.5 -30t-20.5 -17l-10 -4q-60 -23 -182 -23q-54 0 -84 3q-10 -146 -10 -280
q191 -2 220 -13q14 -5 14 -26q0 -24 -15 -28z" />
    <glyph glyph-name="Ccedilla" unicode="&#xc7;" horiz-adv-x="546" 
d="M370 -134q0 -38 -28 -60t-76 -22q-20 0 -34 9t-14 22q0 20 33 20q4 0 9 -1h6q11 0 17.5 10t6.5 25q-2 17 -8.5 26.5t-13.5 11.5t-12.5 8t-5.5 17q0 16 15 29q-47 0 -83.5 20.5t-60.5 56.5t-40.5 79t-25 97t-12 101.5t-3.5 100.5q0 46 2.5 84.5t10.5 83t21 79.5t36 68.5
t54 55.5t76 35.5t101 13.5q39 0 68 -11.5t43.5 -27t23 -36t10 -33t1.5 -24.5q0 -21 -20 -31t-40 -10q-15 0 -23.5 14.5t-12.5 32.5t-20.5 32.5t-45.5 14.5q-37 0 -55.5 -83.5t-18.5 -209.5q0 -164 27.5 -299.5t71.5 -135.5q34 0 61 31t56 31q28 0 28 -25q0 -27 -37 -56
t-105 -42q-7 -12 -21 -26q17 -12 27.5 -33t10.5 -43z" />
    <glyph glyph-name="Egrave" unicode="&#xc8;" horiz-adv-x="573" 
d="M424 395q15 6 15 28q0 21 -14 26q-39 15 -178 15h-5q2 129 27 216q68 2 121 8t72 11l19 5q5 1 11.5 4t18 16.5t11.5 30.5v1q-1 16 -10.5 24t-36.5 12q-226 30 -309 30q-15 0 -20 -6.5t-5 -25.5q-39 -33 -66 -116t-36 -154.5t-9 -124.5q0 -66 6 -118.5t26.5 -111.5
t55.5 -98.5t98 -65.5t149 -26q114 0 144 47q11 17 11 37q0 17 -10 28t-30 11q-17 0 -29 -7t-20 -15t-29 -15t-52 -7q-45 0 -73 89.5t-34 221.5h9q89 0 172 30zM231 1117q16 0 28 -24.5t28.5 -63t38.5 -60.5q17 -17 17 -27q-21 -31 -47 -31q-37 0 -72 52t-35 105
q0 20 11.5 34.5t30.5 14.5z" />
    <glyph glyph-name="Eacute" unicode="&#xc9;" horiz-adv-x="573" 
d="M424 395q-83 -30 -172 -30h-9q6 -132 34 -221.5t73 -89.5q31 0 52 7t29 15t20 15t29 7q20 0 30 -11t10 -28q0 -20 -11 -37q-30 -47 -144 -47q-86 0 -149 26t-98 65.5t-55.5 98.5t-26.5 111.5t-6 118.5q0 53 9 124.5t36 154.5t66 116q0 19 5 25.5t20 6.5q83 0 309 -30
q27 -4 36.5 -12t10.5 -24v-1q0 -17 -10 -30t-20 -17l-11 -4q-60 -20 -212 -24q-25 -87 -27 -216h5q139 0 178 -15q14 -5 14 -26q0 -22 -15 -28zM331 1088q14 0 23 -12t9 -28q0 -39 -30 -93.5t-67 -54.5q-21 0 -38 24q2 3 15 17t25.5 33t18.5 42q20 72 44 72z" />
    <glyph glyph-name="Ecircumflex" unicode="&#xca;" horiz-adv-x="573" 
d="M424 395q-83 -30 -172 -30h-9q6 -132 34 -221.5t73 -89.5q31 0 52 7t29 15t20 15t29 7q20 0 30 -11t10 -28q0 -20 -11 -37q-30 -47 -144 -47q-86 0 -149 26t-98 65.5t-55.5 98.5t-26.5 111.5t-6 118.5q0 53 9 124.5t36 154.5t66 116q0 19 5 25.5t20 6.5q83 0 309 -30
q27 -4 36.5 -12t10.5 -24v-1q0 -17 -10 -30t-20 -17l-11 -4q-60 -20 -212 -24q-25 -87 -27 -216h5q139 0 178 -15q14 -5 14 -26q0 -22 -15 -28zM357 1052q81 -117 81 -143q0 -19 -25 -21h-2q-13 0 -36 24t-54.5 64t-42.5 52q-43 -38 -93 -109q-20 -29 -42 -29t-22 24
q0 32 22 64q80 118 144 118q39 0 70 -44z" />
    <glyph glyph-name="Edieresis" unicode="&#xcb;" horiz-adv-x="573" 
d="M424 395q-83 -30 -172 -30h-9q6 -132 34 -221.5t73 -89.5q31 0 52 7t29 15t20 15t29 7q20 0 30 -11t10 -28q0 -20 -11 -37q-30 -47 -144 -47q-86 0 -149 26t-98 65.5t-55.5 98.5t-26.5 111.5t-6 118.5q0 53 9 124.5t36 154.5t66 116q0 19 5 25.5t20 6.5q83 0 309 -30
q27 -4 36.5 -12t10.5 -24v-1q0 -17 -10 -30t-20 -17l-11 -4q-60 -20 -212 -24q-25 -87 -27 -216h5q139 0 178 -15q14 -5 14 -26q0 -22 -15 -28zM92 917q0 32 25.5 56t58.5 24q43 0 43 -42q0 -37 -20.5 -56t-47.5 -19q-59 0 -59 37zM395 998q21 0 43 -14t22 -35
q0 -24 -25.5 -44.5t-57.5 -20.5q-25 0 -38 12t-13 31q0 30 19 50.5t50 20.5z" />
    <glyph glyph-name="Igrave" unicode="&#xcc;" horiz-adv-x="315" 
d="M193 -77q50 341 50 671q0 288 -98 288q-52 0 -68.5 -33t-16.5 -92q0 -38 5 -114.5t5 -134.5q0 -36 -0.5 -113t-0.5 -115q0 -302 33 -333t65 -31q8 0 14.5 2t8.5 4zM130 1141q16 0 28 -24.5t28.5 -63t38.5 -60.5q17 -17 17 -27q-21 -31 -47 -31q-37 0 -72 52t-35 105
q0 20 11.5 34.5t30.5 14.5z" />
    <glyph glyph-name="Iacute" unicode="&#xcd;" horiz-adv-x="315" 
d="M193 -77q-9 -7 -26 -7q-32 0 -65 31t-33 333q0 38 0.5 115t0.5 113q0 58 -5 134.5t-5 114.5q0 59 16.5 92t68.5 33q98 0 98 -288q0 -147 -12.5 -315t-24.5 -262zM191 1114q14 0 23 -12t9 -28q0 -39 -30 -93.5t-67 -54.5q-21 0 -38 24q2 3 15 17t25.5 33t18.5 42
q20 72 44 72z" />
    <glyph glyph-name="Icircumflex" unicode="&#xce;" horiz-adv-x="315" 
d="M193 -77q-9 -7 -26 -7q-32 0 -65 31t-33 333q0 38 0.5 115t0.5 113q0 58 -5 134.5t-5 114.5q0 59 16.5 92t68.5 33q98 0 98 -288q0 -147 -12.5 -315t-24.5 -262zM227 1072q81 -117 81 -143q0 -19 -25 -21h-2q-13 0 -36 24t-54.5 64t-42.5 52q-43 -38 -93 -109
q-20 -29 -42 -29t-22 24q0 32 22 64q80 118 144 118q39 0 70 -44z" />
    <glyph glyph-name="Idieresis" unicode="&#xcf;" horiz-adv-x="315" 
d="M193 -77q-9 -7 -26 -7q-32 0 -65 31t-33 333q0 38 0.5 115t0.5 113q0 58 -5 134.5t-5 114.5q0 59 16.5 92t68.5 33q98 0 98 -288q0 -147 -12.5 -315t-24.5 -262zM-28 974q0 32 25.5 56t58.5 24q43 0 43 -42q0 -37 -20.5 -56t-47.5 -19q-59 0 -59 37zM275 1055
q21 0 43 -14t22 -35q0 -24 -25.5 -44.5t-57.5 -20.5q-25 0 -38 12t-13 31q0 30 19 50.5t50 20.5z" />
    <glyph glyph-name="Eth" unicode="&#xd0;" horiz-adv-x="708" 
d="M350 431q9 0 9 -24q0 -18 -7 -32.5t-20 -14.5q-38 0 -55 -1q0 -38 1 -100t1 -86q0 -87 -6 -129q51 8 88.5 37t57 64.5t30.5 88.5t13.5 94t2.5 96q0 59 -7.5 109t-26.5 100t-57.5 79t-94.5 29h-16q14 -78 14 -290q47 -3 73 -20zM151 860q28 0 50 -11q61 0 116.5 -7
t120 -30.5t111 -61t78 -105.5t31.5 -158q0 -97 -14.5 -177t-38 -134t-56.5 -95.5t-67.5 -65.5t-74.5 -38.5t-72.5 -19.5t-66.5 -5q-24 0 -34 1q-20 -16 -54 -16q-21 0 -38 10t-29 29.5t-21 42t-14.5 55.5t-9 61.5t-5 67.5t-2 65.5t-0.5 64.5q-18 -3 -29 -3h-6q-36 0 -36 41
q4 59 73 72q5 241 27 339q-19 16 -19 39l4 19l40 5q13 15 36 15z" />
    <glyph glyph-name="Ntilde" unicode="&#xd1;" horiz-adv-x="667" 
d="M551 1027q19 0 19 -29q0 -32 -26 -63t-79 -31q-54 0 -133.5 29.5t-104.5 29.5q-13 0 -32 -14t-26 -14q-20 0 -20 24q0 46 39 76t80 30q29 0 96 -34t109 -34q11 0 23.5 3t21.5 7.5t16.5 9t11.5 7.5zM148 847q19 10 32 10q9 0 17 -3.5t11 -7.5l3 -3q11 0 72 -151.5
t117 -303.5l55 -152q-1 8 -1 27q0 67 27 264.5t27 267.5q0 41 17.5 59.5t42.5 18.5q18 0 33.5 -8.5t15.5 -17.5q0 -239 -21.5 -457.5t-46 -331.5t-41.5 -123q-15 -10 -41 -10q-27 0 -40 9q-25 16 -86 132t-110 224l-49 107q0 -246 -10.5 -346t-53.5 -118q-15 -6 -28 -6
q-28 0 -30 17q-6 39 -6 108q0 197 34.5 490t59.5 305z" />
    <glyph glyph-name="Ograve" unicode="&#xd2;" horiz-adv-x="705" 
d="M357 39q-37 0 -63 26t-37 67.5t-15.5 75.5t-4.5 68q0 110 5.5 194t16.5 135t23 83.5t29.5 47t30.5 19t32 4.5q89 0 89 -247q0 -125 -8 -217.5t-22.5 -147.5t-33 -81.5t-42.5 -26.5zM38 261q0 -73 15.5 -128.5t39.5 -88t58 -52.5t66 -27t68 -7q159 0 242 93
q136 148 136 499q0 57 -15.5 103t-39.5 75t-57.5 51t-63 33t-63.5 17.5t-52.5 8t-34.5 1.5q-299 0 -299 -578zM324 1090q16 0 28 -24.5t28.5 -63t38.5 -60.5q17 -17 17 -27q-21 -31 -47 -31q-37 0 -72 52t-35 105q0 20 11.5 34.5t30.5 14.5z" />
    <glyph glyph-name="Oacute" unicode="&#xd3;" horiz-adv-x="705" 
d="M357 39q24 0 42.5 26.5t33 81.5t22.5 147.5t8 217.5q0 247 -89 247q-19 0 -32 -4.5t-30.5 -19t-29.5 -47t-23 -83.5t-16.5 -135t-5.5 -194q0 -34 4.5 -68t15.5 -75.5t37 -67.5t63 -26zM38 261q0 578 299 578q16 0 34.5 -1.5t52.5 -8t63.5 -17.5t63 -33t57.5 -51t39.5 -75
t15.5 -103q0 -351 -136 -499q-83 -93 -242 -93q-36 0 -68 7t-66 27t-58 52.5t-39.5 88t-15.5 128.5zM406 1085q14 0 23 -12t9 -28q0 -39 -30 -93.5t-67 -54.5q-21 0 -38 24q2 3 15 17t25.5 33t18.5 42q20 72 44 72z" />
    <glyph glyph-name="Ocircumflex" unicode="&#xd4;" horiz-adv-x="705" 
d="M357 39q24 0 42.5 26.5t33 81.5t22.5 147.5t8 217.5q0 247 -89 247q-19 0 -32 -4.5t-30.5 -19t-29.5 -47t-23 -83.5t-16.5 -135t-5.5 -194q0 -34 4.5 -68t15.5 -75.5t37 -67.5t63 -26zM38 261q0 578 299 578q16 0 34.5 -1.5t52.5 -8t63.5 -17.5t63 -33t57.5 -51t39.5 -75
t15.5 -103q0 -351 -136 -499q-83 -93 -242 -93q-36 0 -68 7t-66 27t-58 52.5t-39.5 88t-15.5 128.5zM434 1049q81 -117 81 -143q0 -19 -25 -21h-2q-13 0 -36 24t-54.5 64t-42.5 52q-43 -38 -93 -109q-20 -29 -42 -29t-22 24q0 32 22 64q80 118 144 118q39 0 70 -44z" />
    <glyph glyph-name="Otilde" unicode="&#xd5;" horiz-adv-x="705" 
d="M552 1036q17 0 17 -26q0 -29 -25 -60.5t-74 -31.5q-46 0 -133 39t-120 39q-17 0 -24 -17.5t-7 -37.5q0 -11 3 -23t3 -15q0 -14 -17 -15q-15 0 -25.5 20.5t-10.5 46.5q0 60 37.5 98t86.5 38q41 0 116 -40t98 -40q11 0 22.5 2.5t20.5 6t16 7.5t12 7zM357 39q24 0 42.5 26.5
t33 81.5t22.5 147.5t8 217.5q0 247 -89 247q-19 0 -32 -4.5t-30.5 -19t-29.5 -47t-23 -83.5t-16.5 -135t-5.5 -194q0 -34 4.5 -68t15.5 -75.5t37 -67.5t63 -26zM38 261q0 578 299 578q16 0 34.5 -1.5t52.5 -8t63.5 -17.5t63 -33t57.5 -51t39.5 -75t15.5 -103
q0 -351 -136 -499q-83 -93 -242 -93q-36 0 -68 7t-66 27t-58 52.5t-39.5 88t-15.5 128.5z" />
    <glyph glyph-name="Odieresis" unicode="&#xd6;" horiz-adv-x="705" 
d="M357 39q24 0 42.5 26.5t33 81.5t22.5 147.5t8 217.5q0 247 -89 247q-19 0 -32 -4.5t-30.5 -19t-29.5 -47t-23 -83.5t-16.5 -135t-5.5 -194q0 -34 4.5 -68t15.5 -75.5t37 -67.5t63 -26zM38 261q0 578 299 578q16 0 34.5 -1.5t52.5 -8t63.5 -17.5t63 -33t57.5 -51t39.5 -75
t15.5 -103q0 -351 -136 -499q-83 -93 -242 -93q-36 0 -68 7t-66 27t-58 52.5t-39.5 88t-15.5 128.5zM174 917q0 32 25.5 56t58.5 24q43 0 43 -42q0 -37 -20.5 -56t-47.5 -19q-59 0 -59 37zM477 998q21 0 43 -14t22 -35q0 -24 -25.5 -44.5t-57.5 -20.5q-25 0 -38 12t-13 31
q0 30 19 50.5t50 20.5z" />
    <glyph glyph-name="multiply" unicode="&#xd7;" horiz-adv-x="393" 
d="M98 204q-17 0 -30.5 12t-13.5 30q0 24 26 50q7 7 26 23.5t28 24.5q-20 20 -36 33l-22 19q-19 19 -19 39t17 42.5t37 22.5q21 0 51 -28q17 -17 51 -59h1l63 58q23 21 37 21q18 0 33 -16.5t15 -36.5q0 -9 -5 -19.5t-15.5 -23t-18 -20.5t-22.5 -22.5t-19 -18.5l55 -60
q21 -21 21 -37q0 -18 -16.5 -32.5t-35.5 -14.5q-18 0 -30 12q-20 12 -70 63q-64 -62 -108 -62z" />
    <glyph glyph-name="Oslash" unicode="&#xd8;" horiz-adv-x="705" 
d="M357 39q24 0 42.5 26.5t33 81.5t22.5 147.5t8 217.5q0 7 -0.5 19t-0.5 18q-157 -459 -166 -486q26 -24 61 -24zM237 276q0 -26 3 -64q62 204 108 342q20 59 62 191q-17 14 -36 14t-32 -4.5t-30.5 -19t-29.5 -47t-23 -83.5t-16.5 -135t-5.5 -194zM140 -143q12 47 33 123
q-135 61 -135 281q0 578 299 578q45 0 99 -12q32 101 52 136.5t48 35.5q35 0 35 -45q0 -47 -33 -167q125 -75 125 -237q0 -351 -136 -499q-83 -93 -242 -93q-3 0 -11 0.5t-11 0.5q-21 -66 -39 -129q-14 -47 -51 -47q-38 0 -38 40z" />
    <glyph glyph-name="Ugrave" unicode="&#xd9;" horiz-adv-x="711" 
d="M594 -12q-12 -12 -25 -12q-25 0 -71 41q-22 19 -22 140v47q-91 -221 -258 -221q-171 0 -171 311q0 89 14 195.5t28 168.5l14 61q2 12 6.5 29t23 45.5t42.5 28.5q41 0 82 -9t41 -25q0 -74 -27.5 -306t-27.5 -308q0 -85 24 -85h3q60 13 120.5 106t99.5 281q5 87 5 143
q0 53 -4 82q-2 12 -2 34q0 46 18.5 68t47.5 22q108 0 108 -224q0 -5 -0.5 -16t-0.5 -17q-6 -202 -29 -383t-39 -197zM345 1055q16 0 28 -24.5t28.5 -63t38.5 -60.5q17 -17 17 -27q-21 -31 -47 -31q-37 0 -72 52t-35 105q0 20 11.5 34.5t30.5 14.5z" />
    <glyph glyph-name="Uacute" unicode="&#xda;" horiz-adv-x="711" 
d="M594 -12q-12 -12 -25 -12q-25 0 -71 41q-22 19 -22 140v47q-91 -221 -258 -221q-171 0 -171 311q0 89 14 195.5t28 168.5l14 61q2 12 6.5 29t23 45.5t42.5 28.5q41 0 82 -9t41 -25q0 -74 -27.5 -306t-27.5 -308q0 -85 24 -85h3q60 13 120.5 106t99.5 281q5 87 5 143
q0 53 -4 82q-2 12 -2 34q0 46 18.5 68t47.5 22q108 0 108 -224q0 -5 -0.5 -16t-0.5 -17q-6 -202 -29 -383t-39 -197zM445 1034q14 0 23 -12t9 -28q0 -39 -30 -93.5t-67 -54.5q-21 0 -38 24q2 3 15 17t25.5 33t18.5 42q20 72 44 72z" />
    <glyph glyph-name="Ucircumflex" unicode="&#xdb;" horiz-adv-x="711" 
d="M594 -12q-12 -12 -25 -12q-25 0 -71 41q-22 19 -22 140v47q-91 -221 -258 -221q-171 0 -171 311q0 89 14 195.5t28 168.5l14 61q2 12 6.5 29t23 45.5t42.5 28.5q41 0 82 -9t41 -25q0 -74 -27.5 -306t-27.5 -308q0 -85 24 -85h3q60 13 120.5 106t99.5 281q5 87 5 143
q0 53 -4 82q-2 12 -2 34q0 46 18.5 68t47.5 22q108 0 108 -224q0 -5 -0.5 -16t-0.5 -17q-6 -202 -29 -383t-39 -197zM465 1052q81 -117 81 -143q0 -19 -25 -21h-2q-13 0 -36 24t-54.5 64t-42.5 52q-43 -38 -93 -109q-20 -29 -42 -29t-22 24q0 32 22 64q80 118 144 118
q39 0 70 -44z" />
    <glyph glyph-name="Udieresis" unicode="&#xdc;" horiz-adv-x="711" 
d="M594 -12q-12 -12 -25 -12q-25 0 -71 41q-22 19 -22 140v47q-91 -221 -258 -221q-171 0 -171 311q0 89 14 195.5t28 168.5l14 61q2 12 6.5 29t23 45.5t42.5 28.5q41 0 82 -9t41 -25q0 -74 -27.5 -306t-27.5 -308q0 -85 24 -85h3q60 13 120.5 106t99.5 281q5 87 5 143
q0 53 -4 82q-2 12 -2 34q0 46 18.5 68t47.5 22q108 0 108 -224q0 -5 -0.5 -16t-0.5 -17q-6 -202 -29 -383t-39 -197zM193 907q0 32 25.5 56t58.5 24q43 0 43 -42q0 -37 -20.5 -56t-47.5 -19q-59 0 -59 37zM496 988q21 0 43 -14t22 -35q0 -24 -25.5 -44.5t-57.5 -20.5
q-25 0 -38 12t-13 31q0 30 19 50.5t50 20.5z" />
    <glyph glyph-name="Yacute" unicode="&#xdd;" horiz-adv-x="545" 
d="M51 786v14q0 26 38 26q17 0 25 -7.5t13 -29.5q53 -237 100 -401q28 158 70 283q54 161 146 161q73 0 73 -50q0 -25 -17 -52q-25 -43 -75 -210.5t-75 -217.5q3 -12 3 -28q0 -11 -3.5 -55.5t-3.5 -79.5q0 -80 -28.5 -125t-112.5 -45q-47 0 -47 167q0 61 6 137
q-52 52 -82 226q-30 178 -30 287zM304 1021q14 0 23 -12t9 -28q0 -39 -30 -93.5t-67 -54.5q-21 0 -38 24q2 3 15 17t25.5 33t18.5 42q20 72 44 72z" />
    <glyph glyph-name="Thorn" unicode="&#xde;" horiz-adv-x="581" 
d="M241 466q-4 -87 -13 -212q17 -1 37 -8t47 -7q35 0 56 70.5t21 158.5q0 69 -14.5 116.5t-42.5 47.5q-36 0 -56 -19t-24 -40t-6 -56t-4 -46v-2q-1 -2 -1 -3zM287 158q-40 0 -65 18l-29 -253q-9 -7 -26 -7q-32 0 -65 31t-33 333q0 38 0.5 115t0.5 113q0 58 -5 134.5
t-5 114.5q0 59 16.5 92t68.5 33q79 0 94 -187q35 16 81 16q111 0 175.5 -53.5t64.5 -168.5q0 -42 -6 -82.5t-24.5 -87t-47.5 -81t-79.5 -57.5t-115.5 -23z" />
    <glyph glyph-name="germandbls" unicode="&#xdf;" horiz-adv-x="529" 
d="M271 829q71 0 103 -49t32 -114q0 -44 -23 -94t-46.5 -90t-23.5 -58q0 -39 26 -85t57.5 -81t57.5 -76.5t26 -73.5q0 -49 -29 -83t-71.5 -48.5t-73.5 -20t-53 -5.5q-23 0 -39.5 6.5t-16.5 16.5q0 15 38 26q4 1 11 2.5t24.5 9t30.5 17t24 27t11 38.5q0 26 -19 61.5t-42.5 68
t-42.5 85.5t-19 111q0 15 35.5 127t35.5 159q0 52 -37 52q-31 0 -48.5 -20t-28.5 -80.5t-14.5 -155.5t-3.5 -262q0 -75 -17 -143t-42.5 -113.5t-55 -79.5t-55.5 -49.5t-44 -15.5q-20 0 -20 19q0 8 12.5 23t30 46t35 81.5t30 150.5t12.5 233q0 13 -1.5 55t-1.5 68q0 48 4 87
t19 83.5t39.5 74t69 49.5t104.5 20z" />
    <glyph glyph-name="agrave" unicode="&#xe0;" 
d="M183 788q16 0 28 -24.5t28.5 -63t38.5 -60.5q17 -17 17 -27q-21 -31 -47 -31q-37 0 -72 52t-35 105q0 20 11.5 34.5t30.5 14.5zM83 198q0 40 14.5 78.5t34.5 64.5t40.5 46t35.5 29l14 10q-1 -3 -1 -9q-10 -47 -58 -150.5t-69 -103.5q-11 0 -11 35zM584 369q-18 0 -31 -25
l-34 -57q-112 -182 -151 -182q-9 0 -9 234q0 41 -11 72.5t-27.5 47t-30 22.5t-23.5 7q-1 0 -4 -0.5t-5 -0.5q-6 6 -21 6q-28 0 -65 -17t-77 -50.5t-67.5 -97.5t-27.5 -146q0 -35 5 -59.5t11.5 -36.5t18 -18t18.5 -7t20 -1q33 0 73 52.5t70 134.5q0 -126 32.5 -193t85.5 -67
q98 0 243 271q28 47 28 81q0 12 -5.5 21t-15.5 9z" />
    <glyph glyph-name="aacute" unicode="&#xe1;" 
d="M83 198q0 -35 11 -35q21 0 69 103.5t58 150.5q0 6 1 9q-6 -3 -15 -9.5t-33 -29t-42.5 -47t-33.5 -63.5t-15 -79zM584 369q10 0 15.5 -9t5.5 -21q0 -15 -7 -35.5t-14 -33.5l-7 -12q-145 -271 -243 -271q-53 0 -85.5 67t-32.5 193q-30 -82 -70 -134.5t-73 -52.5
q-13 0 -20 1t-18.5 7t-18 18t-11.5 36.5t-5 59.5q0 82 27.5 146t67.5 97.5t77 50.5t65 17q15 0 21 -6q2 0 5 0.5t4 0.5q10 0 23.5 -7t30 -22.5t27.5 -47t11 -72.5q0 -234 9 -234q39 0 151 182l34 57q13 25 31 25zM295 746q14 0 23 -12t9 -28q0 -39 -30 -93.5t-67 -54.5
q-21 0 -38 24q2 3 15 17t25.5 33t18.5 42q20 72 44 72z" />
    <glyph glyph-name="acircumflex" unicode="&#xe2;" 
d="M83 198q0 -35 11 -35q21 0 69 103.5t58 150.5q0 6 1 9q-6 -3 -15 -9.5t-33 -29t-42.5 -47t-33.5 -63.5t-15 -79zM584 369q10 0 15.5 -9t5.5 -21q0 -15 -7 -35.5t-14 -33.5l-7 -12q-145 -271 -243 -271q-53 0 -85.5 67t-32.5 193q-30 -82 -70 -134.5t-73 -52.5
q-13 0 -20 1t-18.5 7t-18 18t-11.5 36.5t-5 59.5q0 82 27.5 146t67.5 97.5t77 50.5t65 17q15 0 21 -6q2 0 5 0.5t4 0.5q10 0 23.5 -7t30 -22.5t27.5 -47t11 -72.5q0 -234 9 -234q39 0 151 182l34 57q13 25 31 25zM308 731q81 -117 81 -143q0 -19 -25 -21h-2q-13 0 -36 24
t-54.5 64t-42.5 52q-43 -38 -93 -109q-20 -29 -42 -29t-22 24q0 32 22 64q80 118 144 118q39 0 70 -44z" />
    <glyph glyph-name="atilde" unicode="&#xe3;" 
d="M83 198q0 -35 11 -35q21 0 69 103.5t58 150.5q0 6 1 9q-6 -3 -15 -9.5t-33 -29t-42.5 -47t-33.5 -63.5t-15 -79zM584 369q10 0 15.5 -9t5.5 -21q0 -15 -7 -35.5t-14 -33.5l-7 -12q-145 -271 -243 -271q-53 0 -85.5 67t-32.5 193q-30 -82 -70 -134.5t-73 -52.5
q-13 0 -20 1t-18.5 7t-18 18t-11.5 36.5t-5 59.5q0 82 27.5 146t67.5 97.5t77 50.5t65 17q15 0 21 -6q2 0 5 0.5t4 0.5q10 0 23.5 -7t30 -22.5t27.5 -47t11 -72.5q0 -234 9 -234q39 0 151 182l34 57q13 25 31 25zM356 640q12 0 12 -18q0 -21 -17 -41t-51 -20q-30 0 -80 19
t-70 19q-9 0 -21.5 -9t-16.5 -9q-13 0 -13 15q0 29 25 48.5t51 19.5q24 0 68 -21.5t62 -21.5q7 0 15 2t14 4.5t11 5.5t8 5z" />
    <glyph glyph-name="adieresis" unicode="&#xe4;" 
d="M83 198q0 -35 11 -35q21 0 69 103.5t58 150.5q0 6 1 9q-6 -3 -15 -9.5t-33 -29t-42.5 -47t-33.5 -63.5t-15 -79zM584 369q10 0 15.5 -9t5.5 -21q0 -15 -7 -35.5t-14 -33.5l-7 -12q-145 -271 -243 -271q-53 0 -85.5 67t-32.5 193q-30 -82 -70 -134.5t-73 -52.5
q-13 0 -20 1t-18.5 7t-18 18t-11.5 36.5t-5 59.5q0 82 27.5 146t67.5 97.5t77 50.5t65 17q15 0 21 -6q2 0 5 0.5t4 0.5q10 0 23.5 -7t30 -22.5t27.5 -47t11 -72.5q0 -234 9 -234q39 0 151 182l34 57q13 25 31 25zM62 611q0 32 25.5 56t58.5 24q43 0 43 -42q0 -37 -20.5 -56
t-47.5 -19q-59 0 -59 37zM365 692q21 0 43 -14t22 -35q0 -24 -25.5 -44.5t-57.5 -20.5q-25 0 -38 12t-13 31q0 30 19 50.5t50 20.5z" />
    <glyph glyph-name="aring" unicode="&#xe5;" 
d="M268 753q-18 0 -18 -46q0 -45 13 -45q9 0 15 18t6 38q0 35 -16 35zM368 715q0 -46 -33.5 -84.5t-80.5 -38.5q-43 0 -71 43.5t-28 92.5q0 34 25 56.5t52 30t52 7.5q36 0 60 -28t24 -79zM83 198q0 -35 11 -35q21 0 69 103.5t58 150.5q0 6 1 9q-6 -3 -15 -9.5t-33 -29
t-42.5 -47t-33.5 -63.5t-15 -79zM584 369q10 0 15.5 -9t5.5 -21q0 -15 -7 -35.5t-14 -33.5l-7 -12q-145 -271 -243 -271q-53 0 -85.5 67t-32.5 193q-30 -82 -70 -134.5t-73 -52.5q-13 0 -20 1t-18.5 7t-18 18t-11.5 36.5t-5 59.5q0 82 27.5 146t67.5 97.5t77 50.5t65 17
q15 0 21 -6q2 0 5 0.5t4 0.5q10 0 23.5 -7t30 -22.5t27.5 -47t11 -72.5q0 -234 9 -234q39 0 151 182l34 57q13 25 31 25z" />
    <glyph glyph-name="ae" unicode="&#xe6;" horiz-adv-x="624" 
d="M427 424q0 23 -14 23q-18 0 -28 -20q-5 -11 -7 -25.5t-3 -36t-2 -32.5q54 13 54 91zM83 198q0 -35 11 -35q21 0 69 103.5t58 150.5q0 6 1 9q-6 -3 -15 -9.5t-33 -29t-42.5 -47t-33.5 -63.5t-15 -79zM700 336q13 0 13 -15q0 -26 -27 -85t-69.5 -123.5t-105.5 -112.5
t-125 -48q-17 0 -33 3t-39.5 17t-40.5 38t-29.5 71t-12.5 111q0 40 5 78q-39 -80 -88 -145t-75 -65q-13 0 -20 1t-18.5 7t-18 18t-11.5 36.5t-5 59.5q0 82 27.5 146t67.5 97.5t77 50.5t65 17q15 0 21 -6q2 0 5 0.5t4 0.5q22 0 46 -23q38 36 88 36q11 0 21.5 -2t27 -8.5
t26.5 -22.5t10 -40q0 -75 -37.5 -115t-81.5 -41q-4 -58 -4 -85q0 -125 39 -125q48 0 122.5 66t125.5 154q31 54 50 54z" />
    <glyph glyph-name="ccedilla" unicode="&#xe7;" horiz-adv-x="439" 
d="M510 386q8 0 8 -20t-12 -53t-24 -57l-13 -23q-99 -192 -242 -234q1 -2 1 -4v-4q0 -2 -2 -7t-8.5 -14t-15.5 -17q33 -19 37 -55q0 -2 0.5 -6t0.5 -5q0 -38 -28 -60t-76 -22q-20 0 -34 9t-14 22q0 20 33 20h9l6 -1q12 0 23 10.5t11 24.5q-2 17 -10 25t-17 8t-16 4.5
t-7 15.5q0 21 36 44h-5q-41 0 -70.5 15t-43.5 33t-21.5 45.5t-8.5 41t-1 29.5q0 17 2 45.5t11 79t24 91t44.5 71t68.5 30.5q38 0 66 -7.5t40.5 -19t18 -21t5.5 -17.5q0 -4 -4 -8t-9 -4q-4 0 -10 3q-2 1 -10.5 6.5t-18 8t-24.5 2.5q-26 0 -56.5 -80t-30.5 -164
q0 -48 18 -69.5t45 -21.5q94 0 251 222q59 88 73 88z" />
    <glyph glyph-name="egrave" unicode="&#xe8;" horiz-adv-x="413" 
d="M216 424q0 -78 -54 -91q1 11 2 32.5t3 36t7 25.5q10 20 28 20q14 0 14 -23zM489 336q-19 0 -50 -54q-51 -88 -125.5 -154t-122.5 -66q-39 0 -39 125q0 27 4 85q44 1 81.5 41t37.5 115q0 24 -10 40t-26.5 22.5t-27 8.5t-21.5 2q-50 0 -85.5 -33.5t-52.5 -86t-24.5 -99.5
t-7.5 -90q0 -64 12.5 -111t29.5 -71t40.5 -38t39.5 -17t33 -3q49 0 98.5 29.5t89 76.5t69.5 95t49 94q21 50 21 74q0 15 -13 15zM172 788q16 0 28 -24.5t28.5 -63t38.5 -60.5q17 -17 17 -27q-21 -31 -47 -31q-37 0 -72 52t-35 105q0 20 11.5 34.5t30.5 14.5z" />
    <glyph glyph-name="eacute" unicode="&#xe9;" horiz-adv-x="413" 
d="M216 424q0 23 -14 23q-18 0 -28 -20q-5 -11 -7 -25.5t-3 -36t-2 -32.5q54 13 54 91zM489 336q13 0 13 -15q0 -25 -21 -74q-19 -46 -49 -94t-69.5 -95t-89 -76.5t-98.5 -29.5q-17 0 -33 3t-39.5 17t-40.5 38t-29.5 71t-12.5 111q0 43 7.5 90t24.5 99.5t52.5 86t85.5 33.5
q11 0 21.5 -2t27 -8.5t26.5 -22.5t10 -40q0 -75 -37.5 -115t-81.5 -41q-4 -58 -4 -85q0 -125 39 -125q48 0 122.5 66t125.5 154q31 54 50 54zM242 746q14 0 23 -12t9 -28q0 -39 -30 -93.5t-67 -54.5q-21 0 -38 24q2 3 15 17t25.5 33t18.5 42q20 72 44 72z" />
    <glyph glyph-name="ecircumflex" unicode="&#xea;" horiz-adv-x="413" 
d="M216 424q0 23 -14 23q-18 0 -28 -20q-5 -11 -7 -25.5t-3 -36t-2 -32.5q54 13 54 91zM489 336q13 0 13 -15q0 -25 -21 -74q-19 -46 -49 -94t-69.5 -95t-89 -76.5t-98.5 -29.5q-17 0 -33 3t-39.5 17t-40.5 38t-29.5 71t-12.5 111q0 43 7.5 90t24.5 99.5t52.5 86t85.5 33.5
q11 0 21.5 -2t27 -8.5t26.5 -22.5t10 -40q0 -75 -37.5 -115t-81.5 -41q-4 -58 -4 -85q0 -125 39 -125q48 0 122.5 66t125.5 154q31 54 50 54zM279 731q81 -117 81 -143q0 -19 -25 -21h-2q-13 0 -36 24t-54.5 64t-42.5 52q-43 -38 -93 -109q-20 -29 -42 -29t-22 24
q0 32 22 64q80 118 144 118q39 0 70 -44z" />
    <glyph glyph-name="edieresis" unicode="&#xeb;" horiz-adv-x="413" 
d="M216 424q0 23 -14 23q-18 0 -28 -20q-5 -11 -7 -25.5t-3 -36t-2 -32.5q54 13 54 91zM489 336q13 0 13 -15q0 -25 -21 -74q-19 -46 -49 -94t-69.5 -95t-89 -76.5t-98.5 -29.5q-17 0 -33 3t-39.5 17t-40.5 38t-29.5 71t-12.5 111q0 43 7.5 90t24.5 99.5t52.5 86t85.5 33.5
q11 0 21.5 -2t27 -8.5t26.5 -22.5t10 -40q0 -75 -37.5 -115t-81.5 -41q-4 -58 -4 -85q0 -125 39 -125q48 0 122.5 66t125.5 154q31 54 50 54zM10 611q0 32 25.5 56t58.5 24q43 0 43 -42q0 -37 -20.5 -56t-47.5 -19q-59 0 -59 37zM313 692q21 0 43 -14t22 -35
q0 -24 -25.5 -44.5t-57.5 -20.5q-25 0 -38 12t-13 31q0 30 19 50.5t50 20.5z" />
    <glyph glyph-name="igrave" unicode="&#xec;" horiz-adv-x="338" 
d="M51 430q2 20 23.5 33.5t45.5 13.5q21 0 34 -11.5t13 -35.5v-136q0 -201 17 -201q10 0 56.5 54t87.5 108l42 54q24 34 45 34q16 0 16 -19q0 -9 -3.5 -22t-7.5 -21l-3 -8q-3 -7 -8 -18t-22.5 -44t-36.5 -63t-47.5 -66.5t-58 -63t-66.5 -44.5t-74 -18q-83 0 -83 193
q0 58 7.5 128.5t15.5 111.5zM80 779q16 0 28 -24.5t28.5 -63t38.5 -60.5q17 -17 17 -27q-21 -31 -47 -31q-37 0 -72 52t-35 105q0 20 11.5 34.5t30.5 14.5z" />
    <glyph glyph-name="iacute" unicode="&#xed;" horiz-adv-x="338" 
d="M51 430q2 20 23.5 33.5t45.5 13.5q21 0 34 -11.5t13 -35.5v-136q0 -201 17 -201q10 0 56.5 54t87.5 108l42 54q24 34 45 34q16 0 16 -19q0 -9 -3.5 -22t-7.5 -21l-3 -8q-3 -7 -8 -18t-22.5 -44t-36.5 -63t-47.5 -66.5t-58 -63t-66.5 -44.5t-74 -18q-83 0 -83 193
q0 58 7.5 128.5t15.5 111.5zM167 746q14 0 23 -12t9 -28q0 -39 -30 -93.5t-67 -54.5q-21 0 -38 24q2 3 15 17t25.5 33t18.5 42q20 72 44 72z" />
    <glyph glyph-name="icircumflex" unicode="&#xee;" horiz-adv-x="338" 
d="M51 430q2 20 23.5 33.5t45.5 13.5q21 0 34 -11.5t13 -35.5v-136q0 -201 17 -201q10 0 56.5 54t87.5 108l42 54q24 34 45 34q16 0 16 -19q0 -9 -3.5 -22t-7.5 -21l-3 -8q-3 -7 -8 -18t-22.5 -44t-36.5 -63t-47.5 -66.5t-58 -63t-66.5 -44.5t-74 -18q-83 0 -83 193
q0 58 7.5 128.5t15.5 111.5zM207 715q81 -117 81 -143q0 -19 -25 -21h-2q-13 0 -36 24t-54.5 64t-42.5 52q-43 -38 -93 -109q-20 -29 -42 -29t-22 24q0 32 22 64q80 118 144 118q39 0 70 -44z" />
    <glyph glyph-name="idieresis" unicode="&#xef;" horiz-adv-x="338" 
d="M51 430q2 20 23.5 33.5t45.5 13.5q21 0 34 -11.5t13 -35.5v-136q0 -201 17 -201q10 0 56.5 54t87.5 108l42 54q24 34 45 34q16 0 16 -19q0 -9 -3.5 -22t-7.5 -21l-3 -8q-3 -7 -8 -18t-22.5 -44t-36.5 -63t-47.5 -66.5t-58 -63t-66.5 -44.5t-74 -18q-83 0 -83 193
q0 58 7.5 128.5t15.5 111.5zM-60 614q0 32 25.5 56t58.5 24q43 0 43 -42q0 -37 -20.5 -56t-47.5 -19q-59 0 -59 37zM243 695q21 0 43 -14t22 -35q0 -24 -25.5 -44.5t-57.5 -20.5q-25 0 -38 12t-13 31q0 30 19 50.5t50 20.5z" />
    <glyph glyph-name="eth" unicode="&#xf0;" horiz-adv-x="471" 
d="M160 594q-3 -2 -9.5 -5t-9.5 -5q-30 -15 -41 -15q-17 0 -31 19q-6 9 -6 18q2 26 71 61l68 34q16 7 44 21.5t39 19.5q35 20 46 27h1q6 3 11 3q17 0 30 -22q5 -8 5 -19q0 -12 -12 -18l-8 -5q-8 -5 -22 -14t-32 -20t-41.5 -24.5t-47.5 -25.5l-8 -5q-5 -2 -47 -25zM171 50
q8 0 17 2.5t25.5 16.5t28.5 38.5t21 75t9 118.5q0 20 -16 46.5t-49 26.5q-34 0 -59.5 -71.5t-25.5 -147.5q0 -105 49 -105zM189 -26q-86 0 -146.5 58t-60.5 152q0 51 31 119t78.5 118.5t89.5 50.5q43 0 72 -17q-8 58 -44 159t-91 168q-2 4 -2 6q0 3 1 4q3 8 23 8h2
q16 0 46.5 -18t69 -56.5t72.5 -90.5t57 -129.5t23 -163.5q0 -97 -21 -171.5t-54.5 -115.5t-70.5 -61t-75 -20z" />
    <glyph glyph-name="ntilde" unicode="&#xf1;" horiz-adv-x="500" 
d="M64 468q9 34 46 34q24 0 42.5 -20t18.5 -57l-7 -91q84 140 156 140q50 0 65.5 -41.5t15.5 -145.5q0 -24 -1 -91.5t-1 -111.5q0 -113 -75 -113q-18 0 -31.5 26t-13.5 63q0 52 9 160t9 138q0 42 -10 42q-23 0 -154 -280q-32 -149 -83 -149q-40 0 -57 13.5t-17 48.5
q0 29 11 82.5t35 156t42 196.5zM371 640q12 0 12 -18q0 -21 -17 -41t-51 -20q-30 0 -80 19t-70 19q-9 0 -21.5 -9t-16.5 -9q-13 0 -13 15q0 29 25 48.5t51 19.5q24 0 68 -21.5t62 -21.5q7 0 15 2t14 4.5t11 5.5t8 5z" />
    <glyph glyph-name="ograve" unicode="&#xf2;" horiz-adv-x="443" 
d="M217 452q13 0 25 -43.5t15 -100.5q-61 53 -80 125q8 19 40 19zM169 93q-16 0 -16 74q0 42 4 95q32 -48 91 -75q-21 -94 -79 -94zM195 512q-126 0 -126 -35q0 -8 2.5 -13t4.5 -6l3 -1q-7 -11 -17.5 -31t-28 -89t-17.5 -145q0 -48 13.5 -86.5t33 -60t43 -35.5t41.5 -18.5
t31 -4.5q14 0 34.5 8t46.5 25.5t50 55.5t38 89h1q38 0 72 14.5t55.5 35t37 42t22.5 35.5t6 15q10 24 10 41q0 12 -8 15q-1 0 -2 0.5t-2 0.5q-7 0 -12.5 -6t-7.5 -12l-2 -6q-31 -90 -120 -90q-20 0 -36 4q2 28 2 45q0 59 -17.5 102.5t-42 64t-49 32t-42.5 12.5zM186 788
q16 0 28 -24.5t28.5 -63t38.5 -60.5q17 -17 17 -27q-21 -31 -47 -31q-37 0 -72 52t-35 105q0 20 11.5 34.5t30.5 14.5z" />
    <glyph glyph-name="oacute" unicode="&#xf3;" horiz-adv-x="443" 
d="M217 452q-32 0 -40 -19q19 -72 80 -125q-3 57 -15 100.5t-25 43.5zM169 93q58 0 79 94q-59 27 -91 75q-4 -53 -4 -95q0 -74 16 -74zM195 512q7 0 18 -1.5t40 -13t51.5 -32t40.5 -64t18 -102.5q0 -17 -2 -45q16 -4 36 -4q89 0 120 90q7 24 22 24q1 0 2 -0.5t2 -0.5
q8 -3 8 -15q0 -8 -2.5 -18t-4.5 -16l-3 -7q1 -1 -6 -15t-22.5 -35.5t-37 -42t-55.5 -35t-72 -14.5h-1q-14 -51 -38 -89t-50 -55.5t-46.5 -25.5t-34.5 -8q-13 0 -31 4.5t-41.5 18.5t-43 35.5t-33 60t-13.5 86.5q0 76 15.5 142t31.5 94l16 29q-10 3 -10 20q0 35 126 35z
M257 746q14 0 23 -12t9 -28q0 -39 -30 -93.5t-67 -54.5q-21 0 -38 24q2 3 15 17t25.5 33t18.5 42q20 72 44 72z" />
    <glyph glyph-name="ocircumflex" unicode="&#xf4;" horiz-adv-x="443" 
d="M217 452q-32 0 -40 -19q19 -72 80 -125q-3 57 -15 100.5t-25 43.5zM169 93q58 0 79 94q-59 27 -91 75q-4 -53 -4 -95q0 -74 16 -74zM195 512q7 0 18 -1.5t40 -13t51.5 -32t40.5 -64t18 -102.5q0 -17 -2 -45q16 -4 36 -4q89 0 120 90q7 24 22 24q1 0 2 -0.5t2 -0.5
q8 -3 8 -15q0 -8 -2.5 -18t-4.5 -16l-3 -7q1 -1 -6 -15t-22.5 -35.5t-37 -42t-55.5 -35t-72 -14.5h-1q-14 -51 -38 -89t-50 -55.5t-46.5 -25.5t-34.5 -8q-13 0 -31 4.5t-41.5 18.5t-43 35.5t-33 60t-13.5 86.5q0 76 15.5 142t31.5 94l16 29q-10 3 -10 20q0 35 126 35z
M294 731q81 -117 81 -143q0 -19 -25 -21h-2q-13 0 -36 24t-54.5 64t-42.5 52q-43 -38 -93 -109q-20 -29 -42 -29t-22 24q0 32 22 64q80 118 144 118q39 0 70 -44z" />
    <glyph glyph-name="otilde" unicode="&#xf5;" horiz-adv-x="443" 
d="M217 452q-32 0 -40 -19q19 -72 80 -125q-3 57 -15 100.5t-25 43.5zM169 93q58 0 79 94q-59 27 -91 75q-4 -53 -4 -95q0 -74 16 -74zM195 512q7 0 18 -1.5t40 -13t51.5 -32t40.5 -64t18 -102.5q0 -17 -2 -45q16 -4 36 -4q89 0 120 90q7 24 22 24q1 0 2 -0.5t2 -0.5
q8 -3 8 -15q0 -8 -2.5 -18t-4.5 -16l-3 -7q1 -1 -6 -15t-22.5 -35.5t-37 -42t-55.5 -35t-72 -14.5h-1q-14 -51 -38 -89t-50 -55.5t-46.5 -25.5t-34.5 -8q-13 0 -31 4.5t-41.5 18.5t-43 35.5t-33 60t-13.5 86.5q0 76 15.5 142t31.5 94l16 29q-10 3 -10 20q0 35 126 35z
M344 640q12 0 12 -18q0 -21 -17 -41t-51 -20q-30 0 -80 19t-70 19q-9 0 -21.5 -9t-16.5 -9q-13 0 -13 15q0 29 25 48.5t51 19.5q24 0 68 -21.5t62 -21.5q7 0 15 2t14 4.5t11 5.5t8 5z" />
    <glyph glyph-name="odieresis" unicode="&#xf6;" horiz-adv-x="443" 
d="M217 452q-32 0 -40 -19q19 -72 80 -125q-3 57 -15 100.5t-25 43.5zM169 93q58 0 79 94q-59 27 -91 75q-4 -53 -4 -95q0 -74 16 -74zM195 512q7 0 18 -1.5t40 -13t51.5 -32t40.5 -64t18 -102.5q0 -17 -2 -45q16 -4 36 -4q89 0 120 90q7 24 22 24q1 0 2 -0.5t2 -0.5
q8 -3 8 -15q0 -8 -2.5 -18t-4.5 -16l-3 -7q1 -1 -6 -15t-22.5 -35.5t-37 -42t-55.5 -35t-72 -14.5h-1q-14 -51 -38 -89t-50 -55.5t-46.5 -25.5t-34.5 -8q-13 0 -31 4.5t-41.5 18.5t-43 35.5t-33 60t-13.5 86.5q0 76 15.5 142t31.5 94l16 29q-10 3 -10 20q0 35 126 35z
M36 611q0 32 25.5 56t58.5 24q43 0 43 -42q0 -37 -20.5 -56t-47.5 -19q-59 0 -59 37zM339 692q21 0 43 -14t22 -35q0 -24 -25.5 -44.5t-57.5 -20.5q-25 0 -38 12t-13 31q0 30 19 50.5t50 20.5z" />
    <glyph glyph-name="divide" unicode="&#xf7;" horiz-adv-x="748" 
d="M343 67q0 -1 -0.5 -4.5t-0.5 -5.5q0 -39 13 -39q8 0 13.5 14.5t5.5 31.5q0 19 -7 25q-4 4 -8 4q-11 0 -16 -26zM403 -36q-30 -17 -56 -17q-46 0 -75 41t-29 87q0 41 24 54q58 33 108 33q36 0 55 -19q32 -28 32 -82q0 -63 -59 -97zM359 576v4q0 40 -12 40q-15 -2 -15 -39
q0 -19 7 -25q5 -3 8 -3q9 0 12 23zM298 680q30 20 59 20q45 0 74.5 -43.5t29.5 -90.5q0 -39 -21 -53q-63 -40 -112 -40q-32 0 -51 19q-35 31 -35 89q0 63 56 99zM90 364q273 30 411 30q78 0 121.5 -12.5t49.5 -46.5q1 -3 1 -9q0 -35 -58.5 -45t-200.5 -10q-84 0 -143 -1
t-69 -1q-50 0 -100 2h-5q-31 0 -45 19t-14 37v3q0 15 13 23.5t26 9.5z" />
    <glyph glyph-name="oslash" unicode="&#xf8;" horiz-adv-x="443" 
d="M217 452q-32 0 -40 -19q19 -72 80 -125q-3 57 -15 100.5t-25 43.5zM169 93q58 0 79 94q-59 27 -91 75q-4 -53 -4 -95q0 -74 16 -74zM195 512q16 0 38 -7q54 139 71.5 164.5t40.5 25.5q29 0 29 -31q0 -52 -62 -208q51 -56 51 -157q0 -17 -2 -45q16 -4 36 -4q89 0 120 90
q7 24 22 24q1 0 2 -0.5t2 -0.5q8 -3 8 -15q0 -8 -2.5 -18t-4.5 -16l-3 -7q1 -1 -6 -15t-22.5 -35.5t-37 -42t-55.5 -35t-72 -14.5h-1q-14 -51 -38 -89t-50 -55.5t-46.5 -25.5t-34.5 -8q-20 0 -52 13q-24 -61 -41 -115q-11 -33 -42 -33q-32 0 -32 28l4 23q17 57 47 143
q-46 53 -46 146q0 76 15.5 142t31.5 94l16 29q-10 3 -10 20q0 35 126 35z" />
    <glyph glyph-name="ugrave" unicode="&#xf9;" horiz-adv-x="645" 
d="M194 360q0 -40 -13.5 -131t-13.5 -111t7 -20q2 0 3 1q42 22 88.5 104t80 158t42.5 81q22 13 51 13q61 0 61 -78q0 -34 -4 -110t-4 -106q0 -70 17 -70q25 0 65 61.5t79 142.5q35 75 56 75q14 0 14 -24q0 -45 -24 -105q-35 -93 -105 -188.5t-125 -95.5q-88 0 -88 150
q0 31 3.5 65t7.5 52l4 19q-2 -6 -5 -16t-15 -38.5t-26 -54.5t-38 -57.5t-50.5 -54.5t-64 -38.5t-78.5 -15.5q-102 0 -102 200q0 78 14 160t24 99q11 18 43 18q35 0 65.5 -23t30.5 -62zM241 762q16 0 28 -24.5t28.5 -63t38.5 -60.5q17 -17 17 -27q-21 -31 -47 -31
q-37 0 -72 52t-35 105q0 20 11.5 34.5t30.5 14.5z" />
    <glyph glyph-name="uacute" unicode="&#xfa;" horiz-adv-x="645" 
d="M194 360q0 -40 -13.5 -131t-13.5 -111t7 -20q2 0 3 1q42 22 88.5 104t80 158t42.5 81q22 13 51 13q61 0 61 -78q0 -34 -4 -110t-4 -106q0 -70 17 -70q25 0 65 61.5t79 142.5q35 75 56 75q14 0 14 -24q0 -45 -24 -105q-35 -93 -105 -188.5t-125 -95.5q-88 0 -88 150
q0 31 3.5 65t7.5 52l4 19q-2 -6 -5 -16t-15 -38.5t-26 -54.5t-38 -57.5t-50.5 -54.5t-64 -38.5t-78.5 -15.5q-102 0 -102 200q0 78 14 160t24 99q11 18 43 18q35 0 65.5 -23t30.5 -62zM349 709q14 0 23 -12t9 -28q0 -39 -30 -93.5t-67 -54.5q-21 0 -38 24q2 3 15 17t25.5 33
t18.5 42q20 72 44 72z" />
    <glyph glyph-name="ucircumflex" unicode="&#xfb;" horiz-adv-x="645" 
d="M194 360q0 -40 -13.5 -131t-13.5 -111t7 -20q2 0 3 1q42 22 88.5 104t80 158t42.5 81q22 13 51 13q61 0 61 -78q0 -34 -4 -110t-4 -106q0 -70 17 -70q25 0 65 61.5t79 142.5q35 75 56 75q14 0 14 -24q0 -45 -24 -105q-35 -93 -105 -188.5t-125 -95.5q-88 0 -88 150
q0 31 3.5 65t7.5 52l4 19q-2 -6 -5 -16t-15 -38.5t-26 -54.5t-38 -57.5t-50.5 -54.5t-64 -38.5t-78.5 -15.5q-102 0 -102 200q0 78 14 160t24 99q11 18 43 18q35 0 65.5 -23t30.5 -62zM381 711q81 -117 81 -143q0 -19 -25 -21h-2q-13 0 -36 24t-54.5 64t-42.5 52
q-43 -38 -93 -109q-20 -29 -42 -29t-22 24q0 32 22 64q80 118 144 118q39 0 70 -44z" />
    <glyph glyph-name="udieresis" unicode="&#xfc;" horiz-adv-x="645" 
d="M194 360q0 -40 -13.5 -131t-13.5 -111t7 -20q2 0 3 1q42 22 88.5 104t80 158t42.5 81q22 13 51 13q61 0 61 -78q0 -34 -4 -110t-4 -106q0 -70 17 -70q25 0 65 61.5t79 142.5q35 75 56 75q14 0 14 -24q0 -45 -24 -105q-35 -93 -105 -188.5t-125 -95.5q-88 0 -88 150
q0 31 3.5 65t7.5 52l4 19q-2 -6 -5 -16t-15 -38.5t-26 -54.5t-38 -57.5t-50.5 -54.5t-64 -38.5t-78.5 -15.5q-102 0 -102 200q0 78 14 160t24 99q11 18 43 18q35 0 65.5 -23t30.5 -62zM125 611q0 32 25.5 56t58.5 24q43 0 43 -42q0 -37 -20.5 -56t-47.5 -19q-59 0 -59 37z
M428 692q21 0 43 -14t22 -35q0 -24 -25.5 -44.5t-57.5 -20.5q-25 0 -38 12t-13 31q0 30 19 50.5t50 20.5z" />
    <glyph glyph-name="yacute" unicode="&#xfd;" horiz-adv-x="525" 
d="M281 -288q37 44 39 151q-42 -51 -42 -122zM121 514q43 0 43 -101q0 -51 -14 -165.5t-14 -147.5q0 -48 17 -48q29 0 57.5 90t42.5 180l14 89q3 40 25 60.5t51 20.5q25 0 43.5 -14t18.5 -35q0 -139 19 -346q118 154 152 239q9 25 27 25q17 0 17 -21l-3 -21
q-57 -180 -184 -329l12 -142q1 -8 1 -24q0 -85 -43.5 -133.5t-108.5 -48.5q-26 0 -44 11.5t-24.5 30t-9 31t-2.5 23.5q12 88 102 217q-4 47 -13 98.5t-15 78.5l-7 28q-18 -90 -62 -143.5t-91 -53.5q-43 0 -71.5 47.5t-28.5 138.5q0 365 93 365zM298 746q14 0 23 -12t9 -28
q0 -39 -30 -93.5t-67 -54.5q-21 0 -38 24q2 3 15 17t25.5 33t18.5 42q20 72 44 72z" />
    <glyph glyph-name="thorn" unicode="&#xfe;" horiz-adv-x="514" 
d="M86 -653q-20 0 -34 58.5t-19 150.5t-6.5 147t-1.5 104v10q-9 162 -9 274q0 299 37.5 527t90.5 228q42 0 42 -75v-3l-25 -418q26 62 60.5 91.5t89.5 29.5q60 0 97.5 -66t37.5 -158q0 -73 -22 -133.5t-55 -96t-68 -55t-64 -19.5q-16 0 -31 9t-15 25q0 11 14 29t30.5 38.5
t30.5 64t14 98.5q0 129 -33 129q-19 0 -40.5 -40.5t-32.5 -91.5l-15 -71q15 -435 15 -553q0 -69 -3.5 -112.5t-8.5 -68.5t-17.5 -36t-23.5 -13.5t-35 -2.5z" />
    <glyph glyph-name="ydieresis" unicode="&#xff;" horiz-adv-x="525" 
d="M281 -288q37 44 39 151q-42 -51 -42 -122zM121 514q43 0 43 -101q0 -51 -14 -165.5t-14 -147.5q0 -48 17 -48q29 0 57.5 90t42.5 180l14 89q3 40 25 60.5t51 20.5q25 0 43.5 -14t18.5 -35q0 -139 19 -346q118 154 152 239q9 25 27 25q17 0 17 -21l-3 -21
q-57 -180 -184 -329l12 -142q1 -8 1 -24q0 -85 -43.5 -133.5t-108.5 -48.5q-26 0 -44 11.5t-24.5 30t-9 31t-2.5 23.5q12 88 102 217q-4 47 -13 98.5t-15 78.5l-7 28q-18 -90 -62 -143.5t-91 -53.5q-43 0 -71.5 47.5t-28.5 138.5q0 365 93 365zM78 611q0 32 25.5 56t58.5 24
q43 0 43 -42q0 -37 -20.5 -56t-47.5 -19q-59 0 -59 37zM381 692q21 0 43 -14t22 -35q0 -24 -25.5 -44.5t-57.5 -20.5q-25 0 -38 12t-13 31q0 30 19 50.5t50 20.5z" />
    <glyph glyph-name="Abreve" unicode="&#x102;" horiz-adv-x="557" 
d="M247 646q-34 -130 -74 -306q35 6 69 6l25 -1q-15 198 -20 301zM31 30q0 63 11 155.5t19 140t30 168.5q50 289 117 351q22 21 66 21q30 0 67 -24q29 -20 53 -170.5t47 -337.5t43 -252q12 -40 12 -74q0 -39 -15.5 -57.5t-53.5 -18.5q-99 0 -147 319q-81 0 -126 3l-47 -215
q-8 -35 -13.5 -43t-26.5 -8q-36 0 -36 42zM403 1072q-14 -73 -53.5 -112t-86.5 -39q-50 0 -86 42.5t-36 118.5q0 24 22 24q10 0 29 -39q1 -1 1.5 -2t0.5 -2q36 -81 79 -81q24 0 44.5 26.5t31.5 69.5q7 23 30 23q24 0 24 -29z" />
    <glyph glyph-name="abreve" unicode="&#x103;" 
d="M83 198q0 -35 11 -35q21 0 69 103.5t58 150.5q0 6 1 9q-6 -3 -15 -9.5t-33 -29t-42.5 -47t-33.5 -63.5t-15 -79zM584 369q10 0 15.5 -9t5.5 -21q0 -15 -7 -35.5t-14 -33.5l-7 -12q-145 -271 -243 -271q-53 0 -85.5 67t-32.5 193q-30 -82 -70 -134.5t-73 -52.5
q-13 0 -20 1t-18.5 7t-18 18t-11.5 36.5t-5 59.5q0 82 27.5 146t67.5 97.5t77 50.5t65 17q15 0 21 -6q2 0 5 0.5t4 0.5q10 0 23.5 -7t30 -22.5t27.5 -47t11 -72.5q0 -234 9 -234q39 0 151 182l34 57q13 25 31 25zM360 717q-14 -73 -53.5 -112t-86.5 -39q-50 0 -86 42.5
t-36 118.5q0 24 22 24q10 0 29 -39q1 -3 2 -4q36 -81 79 -81q24 0 44.5 26.5t31.5 69.5q7 23 30 23q24 0 24 -29z" />
    <glyph glyph-name="Aogonek" unicode="&#x104;" horiz-adv-x="557" 
d="M247 646q-34 -130 -74 -306q35 6 69 6l25 -1q-15 198 -20 301zM444 -207q-37 0 -65 25t-28 62t31 70q-65 54 -102 301q-81 0 -126 3l-47 -215q-8 -35 -13.5 -43t-26.5 -8q-36 0 -36 42q0 63 11 155.5t19 140t30 168.5q50 289 117 351q22 21 66 21q30 0 67 -24
q29 -20 53 -170.5t47 -337.5t43 -252q12 -40 12 -74q0 -65 -48 -74q-24 -24 -24 -43t21 -32t42 -13q5 0 13.5 3t12.5 3q12 0 12 -13q0 -16 -25 -31t-56 -15z" />
    <glyph glyph-name="aogonek" unicode="&#x105;" 
d="M83 198q0 -35 11 -35q21 0 69 103.5t58 150.5q0 6 1 9q-6 -3 -15 -9.5t-33 -29t-42.5 -47t-33.5 -63.5t-15 -79zM361 -151q-37 0 -65 25t-28 62q0 35 25 63q-77 49 -77 248q-30 -82 -70 -134.5t-73 -52.5q-13 0 -20 1t-18.5 7t-18 18t-11.5 36.5t-5 59.5q0 82 27.5 146
t67.5 97.5t77 50.5t65 17q15 0 21 -6q2 0 5 0.5t4 0.5q10 0 23.5 -7t30 -22.5t27.5 -47t11 -72.5q0 -234 9 -234q48 0 185 239q13 25 31 25q10 0 15.5 -9t5.5 -21q0 -15 -7 -35.5t-14 -33.5l-7 -12q-111 -208 -198 -257l-14 -11q-24 -24 -24 -43t21 -32t42 -13q5 0 13.5 3
t12.5 3q12 0 12 -13q0 -16 -25 -31t-56 -15z" />
    <glyph glyph-name="Cacute" unicode="&#x106;" horiz-adv-x="546" 
d="M268 -39q-56 0 -98.5 29.5t-66.5 74.5t-39 108.5t-19.5 120.5t-4.5 122q0 46 2.5 84.5t10.5 83t21 79.5t36 68.5t54 55.5t76 35.5t101 13.5q39 0 68 -11.5t43.5 -27t23 -36t10 -33t1.5 -24.5q0 -21 -20 -31t-40 -10q-15 0 -23.5 14.5t-12.5 32.5t-20.5 32.5t-45.5 14.5
q-37 0 -55.5 -83.5t-18.5 -209.5q0 -164 27.5 -299.5t71.5 -135.5q34 0 61 31t56 31q28 0 28 -25q0 -36 -59 -70.5t-168 -34.5zM342 1071q14 0 23 -12t9 -28q0 -39 -30 -93.5t-67 -54.5q-21 0 -38 24q2 3 15 17t25.5 33t18.5 42q20 72 44 72z" />
    <glyph glyph-name="cacute" unicode="&#x107;" horiz-adv-x="439" 
d="M510 386q8 0 8 -20t-12 -53t-24 -57l-13 -23q-24 -46 -53 -85.5t-68 -78t-90 -60.5t-107 -22q-41 0 -70.5 15t-43.5 33t-21.5 45.5t-8.5 41t-1 29.5q0 17 2 45.5t11 79t24 91t44.5 71t68.5 30.5q38 0 66 -7.5t40.5 -19t18 -21t5.5 -17.5q0 -4 -4 -8t-9 -4q-4 0 -10 3
q-2 1 -10.5 6.5t-18 8t-24.5 2.5q-26 0 -56.5 -80t-30.5 -164q0 -48 18 -69.5t45 -21.5q94 0 251 222q59 88 73 88zM235 717q14 0 23 -12t9 -28q0 -39 -30 -93.5t-67 -54.5q-21 0 -38 24q2 3 15 17t25.5 33t18.5 42q20 72 44 72z" />
    <glyph glyph-name="Ccircumflex" unicode="&#x108;" horiz-adv-x="546" 
d="M268 -39q-56 0 -98.5 29.5t-66.5 74.5t-39 108.5t-19.5 120.5t-4.5 122q0 46 2.5 84.5t10.5 83t21 79.5t36 68.5t54 55.5t76 35.5t101 13.5q39 0 68 -11.5t43.5 -27t23 -36t10 -33t1.5 -24.5q0 -21 -20 -31t-40 -10q-15 0 -23.5 14.5t-12.5 32.5t-20.5 32.5t-45.5 14.5
q-37 0 -55.5 -83.5t-18.5 -209.5q0 -164 27.5 -299.5t71.5 -135.5q34 0 61 31t56 31q28 0 28 -25q0 -36 -59 -70.5t-168 -34.5zM366 1026q81 -117 81 -143q0 -19 -25 -21h-2q-13 0 -36 24t-54.5 64t-42.5 52q-43 -38 -93 -109q-20 -29 -42 -29t-22 24q0 32 22 64
q80 118 144 118q39 0 70 -44z" />
    <glyph glyph-name="ccircumflex" unicode="&#x109;" horiz-adv-x="439" 
d="M510 386q8 0 8 -20t-12 -53t-24 -57l-13 -23q-24 -46 -53 -85.5t-68 -78t-90 -60.5t-107 -22q-41 0 -70.5 15t-43.5 33t-21.5 45.5t-8.5 41t-1 29.5q0 17 2 45.5t11 79t24 91t44.5 71t68.5 30.5q38 0 66 -7.5t40.5 -19t18 -21t5.5 -17.5q0 -4 -4 -8t-9 -4q-4 0 -10 3
q-2 1 -10.5 6.5t-18 8t-24.5 2.5q-26 0 -56.5 -80t-30.5 -164q0 -48 18 -69.5t45 -21.5q94 0 251 222q59 88 73 88zM239 659q81 -117 81 -143q0 -19 -25 -21h-2q-13 0 -36 24t-54.5 64t-42.5 52q-43 -38 -93 -109q-20 -29 -42 -29t-22 24q0 32 22 64q80 118 144 118
q39 0 70 -44z" />
    <glyph glyph-name="Cdotaccent" unicode="&#x10a;" horiz-adv-x="546" 
d="M268 -39q-56 0 -98.5 29.5t-66.5 74.5t-39 108.5t-19.5 120.5t-4.5 122q0 46 2.5 84.5t10.5 83t21 79.5t36 68.5t54 55.5t76 35.5t101 13.5q39 0 68 -11.5t43.5 -27t23 -36t10 -33t1.5 -24.5q0 -21 -20 -31t-40 -10q-15 0 -23.5 14.5t-12.5 32.5t-20.5 32.5t-45.5 14.5
q-37 0 -55.5 -83.5t-18.5 -209.5q0 -164 27.5 -299.5t71.5 -135.5q34 0 61 31t56 31q28 0 28 -25q0 -36 -59 -70.5t-168 -34.5zM330 995q11 0 17 -9t6 -21q0 -27 -22 -54.5t-44 -27.5q-57 0 -57 41q0 16 37.5 43.5t62.5 27.5z" />
    <glyph glyph-name="cdotaccent" unicode="&#x10b;" horiz-adv-x="439" 
d="M510 386q8 0 8 -20t-12 -53t-24 -57l-13 -23q-24 -46 -53 -85.5t-68 -78t-90 -60.5t-107 -22q-41 0 -70.5 15t-43.5 33t-21.5 45.5t-8.5 41t-1 29.5q0 17 2 45.5t11 79t24 91t44.5 71t68.5 30.5q38 0 66 -7.5t40.5 -19t18 -21t5.5 -17.5q0 -4 -4 -8t-9 -4q-4 0 -10 3
q-2 1 -10.5 6.5t-18 8t-24.5 2.5q-26 0 -56.5 -80t-30.5 -164q0 -48 18 -69.5t45 -21.5q94 0 251 222q59 88 73 88zM196 631q11 0 17 -9t6 -21q0 -27 -22 -54.5t-44 -27.5q-57 0 -57 41q0 16 37.5 43.5t62.5 27.5z" />
    <glyph glyph-name="Ccaron" unicode="&#x10c;" horiz-adv-x="546" 
d="M268 -39q-56 0 -98.5 29.5t-66.5 74.5t-39 108.5t-19.5 120.5t-4.5 122q0 46 2.5 84.5t10.5 83t21 79.5t36 68.5t54 55.5t76 35.5t101 13.5q39 0 68 -11.5t43.5 -27t23 -36t10 -33t1.5 -24.5q0 -21 -20 -31t-40 -10q-15 0 -23.5 14.5t-12.5 32.5t-20.5 32.5t-45.5 14.5
q-37 0 -55.5 -83.5t-18.5 -209.5q0 -164 27.5 -299.5t71.5 -135.5q34 0 61 31t56 31q28 0 28 -25q0 -36 -59 -70.5t-168 -34.5zM237 927q-81 116 -81 143q0 15 25 20q14 0 37 -23t55.5 -64t42.5 -52q47 42 93 108q22 30 42 30q22 0 22 -24q0 -30 -23 -64q-80 -118 -143 -118
q-39 0 -70 44z" />
    <glyph glyph-name="ccaron" unicode="&#x10d;" horiz-adv-x="439" 
d="M510 386q8 0 8 -20t-12 -53t-24 -57l-13 -23q-24 -46 -53 -85.5t-68 -78t-90 -60.5t-107 -22q-41 0 -70.5 15t-43.5 33t-21.5 45.5t-8.5 41t-1 29.5q0 17 2 45.5t11 79t24 91t44.5 71t68.5 30.5q38 0 66 -7.5t40.5 -19t18 -21t5.5 -17.5q0 -4 -4 -8t-9 -4q-4 0 -10 3
q-2 1 -10.5 6.5t-18 8t-24.5 2.5q-26 0 -56.5 -80t-30.5 -164q0 -48 18 -69.5t45 -21.5q94 0 251 222q59 88 73 88zM99 579q-81 116 -81 143q0 15 25 20q14 0 37 -23t55.5 -64t42.5 -52q47 42 93 108q22 30 42 30q22 0 22 -24q0 -30 -23 -64q-80 -118 -143 -118
q-39 0 -70 44z" />
    <glyph glyph-name="Dcaron" unicode="&#x10e;" horiz-adv-x="708" 
d="M277 399q0 -47 1 -122.5t1 -103.5q0 -87 -6 -129q51 8 88.5 37t57 64.5t30.5 88.5t13.5 94t2.5 96q0 59 -7.5 109t-26.5 100t-57.5 79t-94.5 29h-16q14 -76 14 -342zM151 860q28 0 50 -11q61 0 116.5 -7t120 -30.5t111 -61t78 -105.5t31.5 -158q0 -97 -14.5 -177
t-38 -134t-56.5 -95.5t-67.5 -65.5t-74.5 -38.5t-72.5 -19.5t-66.5 -5q-24 0 -34 1q-20 -16 -54 -16q-27 0 -48.5 17t-33.5 45.5t-20.5 57.5t-11.5 62t-4 50t-1 30v3q0 450 29 580q-19 16 -19 39l4 19l40 5q13 15 36 15zM211 963q-81 116 -81 143q0 15 25 20q14 0 37 -23
t55.5 -64t42.5 -52q47 42 93 108q22 30 42 30q22 0 22 -24q0 -30 -23 -64q-80 -118 -143 -118q-39 0 -70 44z" />
    <glyph glyph-name="dcaron" unicode="&#x10f;" horiz-adv-x="515" 
d="M140 111h3q34 5 63.5 66.5t29.5 121.5q0 55 -28 75q-6 4 -10 4q-27 0 -54 -76.5t-27 -138.5q0 -52 23 -52zM296 806q17 7 35 7q99 0 99 -253q0 -62 -6 -142q-8 -92 -8 -189q0 -55 3 -136t3 -109q0 -164 -86 -164q-35 0 -50 65t-20 224q-27 -44 -63.5 -69.5t-63.5 -25.5
q-133 0 -133 124q0 94 7.5 137.5t32.5 94.5q36 71 161 71q34 0 56 -4q5 325 33 369zM536 845q33 0 33 -84q0 -41 -27 -71.5t-50 -30.5q-16 0 -16 18q0 12 8 21t15.5 30t7.5 61q0 56 29 56z" />
    <glyph glyph-name="Dcroat" unicode="&#x110;" horiz-adv-x="708" 
d="M350 431q9 0 9 -24q0 -18 -7 -32.5t-20 -14.5q-38 0 -55 -1q0 -38 1 -100t1 -86q0 -87 -6 -129q51 8 88.5 37t57 64.5t30.5 88.5t13.5 94t2.5 96q0 59 -7.5 109t-26.5 100t-57.5 79t-94.5 29h-16q14 -78 14 -290q47 -3 73 -20zM151 860q28 0 50 -11q61 0 116.5 -7
t120 -30.5t111 -61t78 -105.5t31.5 -158q0 -97 -14.5 -177t-38 -134t-56.5 -95.5t-67.5 -65.5t-74.5 -38.5t-72.5 -19.5t-66.5 -5q-24 0 -34 1q-20 -16 -54 -16q-21 0 -38 10t-29 29.5t-21 42t-14.5 55.5t-9 61.5t-5 67.5t-2 65.5t-0.5 64.5q-18 -3 -29 -3h-6q-36 0 -36 41
q4 59 73 72q5 241 27 339q-19 16 -19 39l4 19l40 5q13 15 36 15z" />
    <glyph glyph-name="dcroat" unicode="&#x111;" horiz-adv-x="515" 
d="M140 111h3q34 5 63.5 66.5t29.5 121.5q0 55 -28 75q-6 4 -10 4q-27 0 -54 -76.5t-27 -138.5q0 -52 23 -52zM296 806q17 7 35 7q80 0 95 -166q23 -5 48 -14q14 -1 14 -29q-2 -14 -5.5 -19.5t-14.5 -5.5h-38v-19q0 -62 -6 -142q-8 -92 -8 -189q0 -55 3 -136t3 -109
q0 -164 -86 -164q-35 0 -50 65t-20 224q-27 -44 -63.5 -69.5t-63.5 -25.5q-133 0 -133 124q0 94 7.5 137.5t32.5 94.5q36 71 161 71q34 0 56 -4q0 75 3 132q-36 -4 -44 -4h-6q-35 0 -35 26q2 31 22.5 48.5t67.5 20.5q4 60 10.5 96.5t10.5 43.5z" />
    <glyph glyph-name="Emacron" unicode="&#x112;" horiz-adv-x="573" 
d="M424 395q-83 -30 -172 -30h-9q6 -132 34 -221.5t73 -89.5q31 0 52 7t29 15t20 15t29 7q20 0 30 -11t10 -28q0 -20 -11 -37q-30 -47 -144 -47q-86 0 -149 26t-98 65.5t-55.5 98.5t-26.5 111.5t-6 118.5q0 53 9 124.5t36 154.5t66 116q0 19 5 25.5t20 6.5q83 0 309 -30
q27 -4 36.5 -12t10.5 -24v-1q0 -17 -10 -30t-20 -17l-11 -4q-60 -20 -212 -24q-25 -87 -27 -216h5q139 0 178 -15q14 -5 14 -26q0 -22 -15 -28zM430 952q11 0 11 -25q-1 -20 -16 -20q-50 0 -99.5 -2.5t-93.5 -6.5t-46 -4h-5q-28 0 -28 22q2 28 20.5 38t66.5 10q7 0 32 0.5
t40 0.5q90 0 118 -13z" />
    <glyph glyph-name="emacron" unicode="&#x113;" horiz-adv-x="413" 
d="M216 424q0 23 -14 23q-18 0 -28 -20q-5 -11 -7 -25.5t-3 -36t-2 -32.5q54 13 54 91zM489 336q13 0 13 -15q0 -25 -21 -74q-19 -46 -49 -94t-69.5 -95t-89 -76.5t-98.5 -29.5q-17 0 -33 3t-39.5 17t-40.5 38t-29.5 71t-12.5 111q0 43 7.5 90t24.5 99.5t52.5 86t85.5 33.5
q11 0 21.5 -2t27 -8.5t26.5 -22.5t10 -40q0 -75 -37.5 -115t-81.5 -41q-4 -58 -4 -85q0 -125 39 -125q48 0 122.5 66t125.5 154q31 54 50 54zM340 630q11 0 11 -25q-1 -20 -16 -20q-50 0 -99.5 -2.5t-93.5 -6.5t-46 -4h-5q-28 0 -28 22q2 28 20.5 38t66.5 10q7 0 32 0.5
t40 0.5q90 0 118 -13z" />
    <glyph glyph-name="Ebreve" unicode="&#x114;" horiz-adv-x="573" 
d="M424 395q-83 -30 -172 -30h-9q6 -132 34 -221.5t73 -89.5q31 0 52 7t29 15t20 15t29 7q20 0 30 -11t10 -28q0 -20 -11 -37q-30 -47 -144 -47q-86 0 -149 26t-98 65.5t-55.5 98.5t-26.5 111.5t-6 118.5q0 53 9 124.5t36 154.5t66 116q0 19 5 25.5t20 6.5q83 0 309 -30
q27 -4 36.5 -12t10.5 -24v-1q0 -17 -10 -30t-20 -17l-11 -4q-60 -20 -212 -24q-25 -87 -27 -216h5q139 0 178 -15q14 -5 14 -26q0 -22 -15 -28zM417 1033q-14 -73 -53.5 -112t-86.5 -39q-50 0 -86 42.5t-36 118.5q0 24 22 24q10 0 29 -39q1 -1 1.5 -2t0.5 -2q36 -81 79 -81
q24 0 44.5 26.5t31.5 69.5q7 23 30 23q24 0 24 -29z" />
    <glyph glyph-name="ebreve" unicode="&#x115;" horiz-adv-x="413" 
d="M216 424q0 23 -14 23q-18 0 -28 -20q-5 -11 -7 -25.5t-3 -36t-2 -32.5q54 13 54 91zM489 336q13 0 13 -15q0 -25 -21 -74q-19 -46 -49 -94t-69.5 -95t-89 -76.5t-98.5 -29.5q-17 0 -33 3t-39.5 17t-40.5 38t-29.5 71t-12.5 111q0 43 7.5 90t24.5 99.5t52.5 86t85.5 33.5
q11 0 21.5 -2t27 -8.5t26.5 -22.5t10 -40q0 -75 -37.5 -115t-81.5 -41q-4 -58 -4 -85q0 -125 39 -125q48 0 122.5 66t125.5 154q31 54 50 54zM338 733q-14 -73 -53.5 -112t-86.5 -39q-50 0 -86 42.5t-36 118.5q0 24 22 24q10 0 29 -39q1 -3 2 -4q36 -81 79 -81
q24 0 44.5 26.5t31.5 69.5q7 23 30 23q24 0 24 -29z" />
    <glyph glyph-name="Edotaccent" unicode="&#x116;" horiz-adv-x="573" 
d="M424 395q-83 -30 -172 -30h-9q6 -132 34 -221.5t73 -89.5q31 0 52 7t29 15t20 15t29 7q20 0 30 -11t10 -28q0 -20 -11 -37q-30 -47 -144 -47q-86 0 -149 26t-98 65.5t-55.5 98.5t-26.5 111.5t-6 118.5q0 53 9 124.5t36 154.5t66 116q0 19 5 25.5t20 6.5q83 0 309 -30
q27 -4 36.5 -12t10.5 -24v-1q0 -17 -10 -30t-20 -17l-11 -4q-60 -20 -212 -24q-25 -87 -27 -216h5q139 0 178 -15q14 -5 14 -26q0 -22 -15 -28zM340 986q11 0 17 -9t6 -21q0 -27 -22 -54.5t-44 -27.5q-57 0 -57 41q0 16 37.5 43.5t62.5 27.5z" />
    <glyph glyph-name="edotaccent" unicode="&#x117;" horiz-adv-x="413" 
d="M216 424q0 23 -14 23q-18 0 -28 -20q-5 -11 -7 -25.5t-3 -36t-2 -32.5q54 13 54 91zM489 336q13 0 13 -15q0 -25 -21 -74q-19 -46 -49 -94t-69.5 -95t-89 -76.5t-98.5 -29.5q-17 0 -33 3t-39.5 17t-40.5 38t-29.5 71t-12.5 111q0 43 7.5 90t24.5 99.5t52.5 86t85.5 33.5
q11 0 21.5 -2t27 -8.5t26.5 -22.5t10 -40q0 -75 -37.5 -115t-81.5 -41q-4 -58 -4 -85q0 -125 39 -125q48 0 122.5 66t125.5 154q31 54 50 54zM236 680q11 0 17 -9t6 -21q0 -27 -22 -54.5t-44 -27.5q-57 0 -57 41q0 16 37.5 43.5t62.5 27.5z" />
    <glyph glyph-name="Eogonek" unicode="&#x118;" horiz-adv-x="573" 
d="M399 -175q-37 0 -65 25t-28 62q0 35 26 64q-77 5 -134 33t-88.5 67.5t-50 96.5t-24 107.5t-5.5 114.5q0 53 9 124.5t36 154.5t66 116q0 19 5 25.5t20 6.5q83 0 309 -30q27 -4 36.5 -12t10.5 -24v-1q0 -17 -10 -30t-20 -17l-11 -4q-60 -20 -212 -24q-25 -87 -27 -216h5
q139 0 178 -15q14 -5 14 -26q0 -22 -15 -28q-83 -30 -172 -30h-9q6 -132 34 -221.5t73 -89.5q31 0 52 7t29 15t20 15t29 7q20 0 30 -11t10 -28q0 -20 -11 -37q-22 -34 -91 -44q-3 -4 -8.5 -8t-6.5 -4q-24 -24 -24 -43t21 -32t42 -13q5 0 13.5 3t12.5 3q12 0 12 -13
q0 -16 -25 -31t-56 -15z" />
    <glyph glyph-name="eogonek" unicode="&#x119;" horiz-adv-x="413" 
d="M216 424q0 23 -14 23q-18 0 -28 -20q-5 -11 -7 -25.5t-3 -36t-2 -32.5q54 13 54 91zM238 -176q-37 0 -65 25t-28 62q0 22 11 42q-17 2 -33.5 8t-36 22.5t-33.5 41.5t-23.5 68t-9.5 99q0 43 7.5 90t24.5 99.5t52.5 86t85.5 33.5q11 0 21.5 -2t27 -8.5t26.5 -22.5t10 -40
q0 -75 -37.5 -115t-81.5 -41q-4 -58 -4 -85q0 -125 39 -125q48 0 122.5 66t125.5 154q31 54 50 54q13 0 13 -15q0 -32 -33 -102t-96 -147t-129 -105q-2 0 -2 -2q-24 -24 -24 -43t21 -32t42 -13q5 0 13.5 3t12.5 3q12 0 12 -13q0 -16 -25 -31t-56 -15z" />
    <glyph glyph-name="Ecaron" unicode="&#x11a;" horiz-adv-x="573" 
d="M424 395q-83 -30 -172 -30h-9q6 -132 34 -221.5t73 -89.5q31 0 52 7t29 15t20 15t29 7q20 0 30 -11t10 -28q0 -20 -11 -37q-30 -47 -144 -47q-86 0 -149 26t-98 65.5t-55.5 98.5t-26.5 111.5t-6 118.5q0 53 9 124.5t36 154.5t66 116q0 19 5 25.5t20 6.5q83 0 309 -30
q27 -4 36.5 -12t10.5 -24v-1q0 -17 -10 -30t-20 -17l-11 -4q-60 -20 -212 -24q-25 -87 -27 -216h5q139 0 178 -15q14 -5 14 -26q0 -22 -15 -28zM216 930q-81 116 -81 143q0 15 25 20q14 0 37 -23t55.5 -64t42.5 -52q47 42 93 108q22 30 42 30q22 0 22 -24q0 -30 -23 -64
q-80 -118 -143 -118q-39 0 -70 44z" />
    <glyph glyph-name="ecaron" unicode="&#x11b;" horiz-adv-x="413" 
d="M216 424q0 23 -14 23q-18 0 -28 -20q-5 -11 -7 -25.5t-3 -36t-2 -32.5q54 13 54 91zM489 336q13 0 13 -15q0 -25 -21 -74q-19 -46 -49 -94t-69.5 -95t-89 -76.5t-98.5 -29.5q-17 0 -33 3t-39.5 17t-40.5 38t-29.5 71t-12.5 111q0 43 7.5 90t24.5 99.5t52.5 86t85.5 33.5
q11 0 21.5 -2t27 -8.5t26.5 -22.5t10 -40q0 -75 -37.5 -115t-81.5 -41q-4 -58 -4 -85q0 -125 39 -125q48 0 122.5 66t125.5 154q31 54 50 54zM90 604q-81 116 -81 143q0 15 25 20q14 0 37 -23t55.5 -64t42.5 -52q47 42 93 108q22 30 42 30q22 0 22 -24q0 -30 -23 -64
q-80 -118 -143 -118q-39 0 -70 44z" />
    <glyph glyph-name="Gcircumflex" unicode="&#x11c;" horiz-adv-x="608" 
d="M339 390q80 27 144 27q62 0 70 -38q5 -39 5 -95q0 -46 -4 -89t-18 -94.5t-36.5 -88.5t-63.5 -62t-95 -25q-79 0 -134.5 17t-87.5 45t-50 76t-23.5 96.5t-5.5 119.5q0 70 8.5 144.5t30 156.5t54.5 146t88 105.5t123 41.5q63 0 106.5 -29.5t43.5 -55.5q0 -19 -26 -19
q-29 0 -56 14t-61 14q-46 0 -75.5 -154t-29.5 -335q0 -126 16.5 -207.5t49.5 -81.5q18 0 33.5 6t27 20.5t20 28t15 38t10.5 40.5t7 46.5t4.5 44.5t3 45.5t2.5 39.5q-77 4 -98 13q-11 4 -11 24q0 21 13 25zM389 1059q81 -117 81 -143q0 -19 -25 -21h-2q-13 0 -36 24t-54.5 64
t-42.5 52q-43 -38 -93 -109q-20 -29 -42 -29t-22 24q0 32 22 64q80 118 144 118q39 0 70 -44z" />
    <glyph glyph-name="gcircumflex" unicode="&#x11d;" horiz-adv-x="607" 
d="M141 -412q0 -23 6.5 -29.5t24.5 -6.5q32 0 69 237q-100 -93 -100 -201zM154 64q22 0 58 96t36 158q0 44 -23 44q-36 0 -73 -82t-37 -151q0 -65 39 -65zM340 527q17 20 44 20q29 0 51 -24.5t22 -71.5q0 -163 -25 -397q180 163 226 285q8 24 18 24q17 0 17 -37
q0 -35 -7 -42q-36 -115 -104 -197.5t-165 -157.5q-67 -471 -205 -471q-83 0 -129.5 40.5t-46.5 91.5q0 72 57 145.5t164 166.5l20 166q-63 -96 -149 -96h-2q-11 0 -25.5 2.5t-35.5 12t-38 25.5t-29 46.5t-12 70.5q0 172 76 255t198 83q33 0 63 -14q10 64 17 74zM347 733
q81 -117 81 -143q0 -19 -25 -21h-2q-13 0 -36 24t-54.5 64t-42.5 52q-43 -38 -93 -109q-20 -29 -42 -29t-22 24q0 32 22 64q80 118 144 118q39 0 70 -44z" />
    <glyph glyph-name="Gbreve" unicode="&#x11e;" horiz-adv-x="608" 
d="M339 390q80 27 144 27q62 0 70 -38q5 -39 5 -95q0 -46 -4 -89t-18 -94.5t-36.5 -88.5t-63.5 -62t-95 -25q-79 0 -134.5 17t-87.5 45t-50 76t-23.5 96.5t-5.5 119.5q0 70 8.5 144.5t30 156.5t54.5 146t88 105.5t123 41.5q63 0 106.5 -29.5t43.5 -55.5q0 -19 -26 -19
q-29 0 -56 14t-61 14q-46 0 -75.5 -154t-29.5 -335q0 -126 16.5 -207.5t49.5 -81.5q18 0 33.5 6t27 20.5t20 28t15 38t10.5 40.5t7 46.5t4.5 44.5t3 45.5t2.5 39.5q-77 4 -98 13q-11 4 -11 24q0 21 13 25zM446 1068q-14 -73 -53.5 -112t-86.5 -39q-50 0 -86 42.5t-36 118.5
q0 24 22 24q10 0 29 -39q1 -1 1.5 -2t0.5 -2q36 -81 79 -81q24 0 44.5 26.5t31.5 69.5q7 23 30 23q24 0 24 -29z" />
    <glyph glyph-name="gbreve" unicode="&#x11f;" horiz-adv-x="607" 
d="M141 -412q0 -23 6.5 -29.5t24.5 -6.5q32 0 69 237q-100 -93 -100 -201zM154 64q22 0 58 96t36 158q0 44 -23 44q-36 0 -73 -82t-37 -151q0 -65 39 -65zM340 527q17 20 44 20q29 0 51 -24.5t22 -71.5q0 -163 -25 -397q180 163 226 285q8 24 18 24q17 0 17 -37
q0 -35 -7 -42q-36 -115 -104 -197.5t-165 -157.5q-67 -471 -205 -471q-83 0 -129.5 40.5t-46.5 91.5q0 72 57 145.5t164 166.5l20 166q-63 -96 -149 -96h-2q-11 0 -25.5 2.5t-35.5 12t-38 25.5t-29 46.5t-12 70.5q0 172 76 255t198 83q33 0 63 -14q10 64 17 74zM386 709
q-14 -73 -53.5 -112t-86.5 -39q-50 0 -86 42.5t-36 118.5q0 24 22 24q10 0 29 -39q1 -3 2 -4q36 -81 79 -81q24 0 44.5 26.5t31.5 69.5q7 23 30 23q24 0 24 -29z" />
    <glyph glyph-name="Gdotaccent" unicode="&#x120;" horiz-adv-x="608" 
d="M339 390q80 27 144 27q62 0 70 -38q5 -39 5 -95q0 -46 -4 -89t-18 -94.5t-36.5 -88.5t-63.5 -62t-95 -25q-79 0 -134.5 17t-87.5 45t-50 76t-23.5 96.5t-5.5 119.5q0 70 8.5 144.5t30 156.5t54.5 146t88 105.5t123 41.5q63 0 106.5 -29.5t43.5 -55.5q0 -19 -26 -19
q-29 0 -56 14t-61 14q-46 0 -75.5 -154t-29.5 -335q0 -126 16.5 -207.5t49.5 -81.5q18 0 33.5 6t27 20.5t20 28t15 38t10.5 40.5t7 46.5t4.5 44.5t3 45.5t2.5 39.5q-77 4 -98 13q-11 4 -11 24q0 21 13 25zM360 1023q11 0 17 -9t6 -21q0 -27 -22 -54.5t-44 -27.5
q-57 0 -57 41q0 16 37.5 43.5t62.5 27.5z" />
    <glyph glyph-name="gdotaccent" unicode="&#x121;" horiz-adv-x="607" 
d="M141 -412q0 -23 6.5 -29.5t24.5 -6.5q32 0 69 237q-100 -93 -100 -201zM154 64q22 0 58 96t36 158q0 44 -23 44q-36 0 -73 -82t-37 -151q0 -65 39 -65zM340 527q17 20 44 20q29 0 51 -24.5t22 -71.5q0 -163 -25 -397q180 163 226 285q8 24 18 24q17 0 17 -37
q0 -35 -7 -42q-36 -115 -104 -197.5t-165 -157.5q-67 -471 -205 -471q-83 0 -129.5 40.5t-46.5 91.5q0 72 57 145.5t164 166.5l20 166q-63 -96 -149 -96h-2q-11 0 -25.5 2.5t-35.5 12t-38 25.5t-29 46.5t-12 70.5q0 172 76 255t198 83q33 0 63 -14q10 64 17 74zM266 667
q11 0 17 -9t6 -21q0 -27 -22 -54.5t-44 -27.5q-57 0 -57 41q0 16 37.5 43.5t62.5 27.5z" />
    <glyph glyph-name="Gcommaaccent" unicode="&#x122;" horiz-adv-x="608" 
d="M339 390q80 27 144 27q62 0 70 -38q5 -39 5 -95q0 -46 -4 -89t-18 -94.5t-36.5 -88.5t-63.5 -62t-95 -25q-79 0 -134.5 17t-87.5 45t-50 76t-23.5 96.5t-5.5 119.5q0 70 8.5 144.5t30 156.5t54.5 146t88 105.5t123 41.5q63 0 106.5 -29.5t43.5 -55.5q0 -19 -26 -19
q-29 0 -56 14t-61 14q-46 0 -75.5 -154t-29.5 -335q0 -126 16.5 -207.5t49.5 -81.5q18 0 33.5 6t27 20.5t20 28t15 38t10.5 40.5t7 46.5t4.5 44.5t3 45.5t2.5 39.5q-77 4 -98 13q-11 4 -11 24q0 21 13 25zM305 -139q65 0 65 -75q0 -66 -41.5 -121.5t-84.5 -55.5
q-10 0 -24 5.5t-14 15.5q0 7 14 24.5t27.5 45t13.5 59.5q0 102 44 102z" />
    <glyph glyph-name="gcommaaccent" unicode="&#x123;" horiz-adv-x="607" 
d="M247 566q-65 0 -65 75q0 66 41.5 121.5t84.5 55.5q10 0 24 -5.5t14 -15.5q0 -7 -14 -24.5t-27.5 -45t-13.5 -59.5q0 -102 -44 -102zM141 -412q0 -23 6.5 -29.5t24.5 -6.5q32 0 69 237q-100 -93 -100 -201zM154 64q22 0 58 96t36 158q0 44 -23 44q-36 0 -73 -82t-37 -151
q0 -65 39 -65zM340 527q17 20 44 20q29 0 51 -24.5t22 -71.5q0 -163 -25 -397q180 163 226 285q8 24 18 24q17 0 17 -37q0 -35 -7 -42q-36 -115 -104 -197.5t-165 -157.5q-67 -471 -205 -471q-83 0 -129.5 40.5t-46.5 91.5q0 72 57 145.5t164 166.5l20 166q-63 -96 -149 -96
h-2q-11 0 -25.5 2.5t-35.5 12t-38 25.5t-29 46.5t-12 70.5q0 172 76 255t198 83q33 0 63 -14q10 64 17 74z" />
    <glyph glyph-name="Hcircumflex" unicode="&#x124;" horiz-adv-x="652" 
d="M452 842q0 2 0.5 5t2.5 11.5t6 15t11.5 11.5t17.5 5q43 0 43 -57q0 -195 7.5 -327t16 -179t16 -90t7.5 -80q0 -92 -23 -141.5t-63 -49.5q-24 0 -40 24.5t-26 92t-10 179.5q0 9 0.5 28.5t0.5 29.5q-75 -32 -171 -36q-1 -84 -7.5 -146t-21.5 -117t-43 -84t-68 -29
q-47 0 -47 416q0 110 3.5 238t6.5 202l3 73q31 27 72 27q110 0 110 -193q0 -33 -3 -121.5t-4 -144.5q106 6 173 36q5 118 12.5 218.5t12.5 141.5zM376 1081q81 -117 81 -143q0 -19 -25 -21h-2q-13 0 -36 24t-54.5 64t-42.5 52q-43 -38 -93 -109q-20 -29 -42 -29t-22 24
q0 32 22 64q80 118 144 118q39 0 70 -44z" />
    <glyph glyph-name="hcircumflex" unicode="&#x125;" horiz-adv-x="644" 
d="M119 807q0 18 15.5 29t36.5 11q23 0 39.5 -14.5t16.5 -42.5q0 -15 -3 -87t-10.5 -196.5t-16.5 -231.5q48 65 103 65q148 0 148 -155q0 -27 -5 -68t-5 -49q0 -14 6 -14q37 0 94.5 62.5t97.5 125.5l39 62q20 34 36 34q2 0 6 -2q14 -8 14 -35l-4 -31q-2 -6 -6 -16.5
t-17.5 -40.5t-28.5 -57t-40 -60t-51.5 -57t-62 -40.5t-72.5 -16.5q-150 0 -150 170q0 23 2.5 56.5t2.5 40.5q0 14 -4 14q-44 0 -117 -137q-26 -231 -58 -249q-47 -42 -81 -42q-35 0 -35 62q0 136 34 461t76 449zM284 1031q81 -117 81 -143q0 -19 -25 -21h-2q-13 0 -36 24
t-54.5 64t-42.5 52q-43 -38 -93 -109q-20 -29 -42 -29t-22 24q0 32 22 64q80 118 144 118q39 0 70 -44z" />
    <glyph glyph-name="Hbar" unicode="&#x126;" horiz-adv-x="652" 
d="M253 564q0 -15 -1.5 -69.5t-2.5 -89.5q106 6 173 36q4 89 7 134q-34 -3 -176 -11zM452 842q0 2 0.5 5t2.5 11.5t6 15t11.5 11.5t17.5 5q43 0 43 -57q0 -86 2 -202h29q2 0 6 -0.5t10 -7t6 -18.5q-1 -12 -7 -15.5t-24 -5.5l-18 -2q5 -137 15.5 -221.5t19 -124.5t8.5 -79
q0 -92 -23 -141.5t-63 -49.5q-24 0 -40 24.5t-26 92t-10 179.5q0 9 0.5 28.5t0.5 29.5q-75 -32 -171 -36q-1 -84 -7.5 -146t-21.5 -117t-43 -84t-68 -29q-47 0 -47 416q0 122 3 231q-45 1 -45 23q4 32 47 42l8 217q31 27 72 27q110 0 110 -193q0 -27 -1 -42q26 0 55 0.5
t65 1.5t57 1z" />
    <glyph glyph-name="hbar" unicode="&#x127;" horiz-adv-x="644" 
d="M119 807q0 18 15.5 29t36.5 11q23 0 39.5 -14.5t16.5 -42.5q0 -24 -8 -187q61 -2 84 -12q11 0 11 -25q-1 -20 -16 -20q-32 0 -82 -2q-6 -101 -19 -269q48 65 103 65q148 0 148 -155q0 -27 -5 -68t-5 -49q0 -14 6 -14q37 0 94.5 62.5t97.5 125.5l39 62q20 34 36 34
q2 0 6 -2q14 -8 14 -35l-4 -31q-2 -6 -6 -16.5t-17.5 -40.5t-28.5 -57t-40 -60t-51.5 -57t-62 -40.5t-72.5 -16.5q-150 0 -150 170q0 23 2.5 56.5t2.5 40.5q0 14 -4 14q-44 0 -117 -137q-26 -231 -58 -249q-47 -42 -81 -42q-35 0 -35 62q0 80 16 274.5t39 361.5h-5h-5
q-28 0 -28 22q2 22 12.5 32.5t35.5 13.5q24 143 45 206z" />
    <glyph glyph-name="Itilde" unicode="&#x128;" horiz-adv-x="315" 
d="M193 -77q-9 -7 -26 -7q-32 0 -65 31t-33 333q0 38 0.5 115t0.5 113q0 58 -5 134.5t-5 114.5q0 59 16.5 92t68.5 33q98 0 98 -288q0 -147 -12.5 -315t-24.5 -262zM271 1025q12 0 12 -18q0 -21 -17 -41t-51 -20q-30 0 -80 19t-70 19q-9 0 -21.5 -9t-16.5 -9q-13 0 -13 15
q0 29 25 48.5t51 19.5q24 0 68 -21.5t62 -21.5q7 0 15 2t14 5l11 5.5t8 4.5z" />
    <glyph glyph-name="itilde" unicode="&#x129;" horiz-adv-x="338" 
d="M51 430q2 20 23.5 33.5t45.5 13.5q21 0 34 -11.5t13 -35.5v-136q0 -201 17 -201q10 0 56.5 54t87.5 108l42 54q24 34 45 34q16 0 16 -19q0 -9 -3.5 -22t-7.5 -21l-3 -8q-3 -7 -8 -18t-22.5 -44t-36.5 -63t-47.5 -66.5t-58 -63t-66.5 -44.5t-74 -18q-83 0 -83 193
q0 58 7.5 128.5t15.5 111.5zM259 640q12 0 12 -18q0 -21 -17 -41t-51 -20q-30 0 -80 19t-70 19q-9 0 -21.5 -9t-16.5 -9q-13 0 -13 15q0 29 25 48.5t51 19.5q24 0 68 -21.5t62 -21.5q7 0 15 2t14 4.5t11 5.5t8 5z" />
    <glyph glyph-name="Imacron" unicode="&#x12a;" horiz-adv-x="315" 
d="M193 -77q-9 -7 -26 -7q-32 0 -65 31t-33 333q0 38 0.5 115t0.5 113q0 58 -5 134.5t-5 114.5q0 59 16.5 92t68.5 33q98 0 98 -288q0 -147 -12.5 -315t-24.5 -262zM272 1013q11 0 11 -25q-1 -20 -16 -20q-50 0 -99.5 -2.5t-93.5 -6.5t-46 -4h-5q-28 0 -28 22q2 28 20.5 38
t66.5 10q7 0 32 0.5t40 0.5q90 0 118 -13z" />
    <glyph glyph-name="imacron" unicode="&#x12b;" horiz-adv-x="338" 
d="M51 430q2 20 23.5 33.5t45.5 13.5q21 0 34 -11.5t13 -35.5v-136q0 -201 17 -201q10 0 56.5 54t87.5 108l42 54q24 34 45 34q16 0 16 -19q0 -9 -3.5 -22t-7.5 -21l-3 -8q-3 -7 -8 -18t-22.5 -44t-36.5 -63t-47.5 -66.5t-58 -63t-66.5 -44.5t-74 -18q-83 0 -83 193
q0 58 7.5 128.5t15.5 111.5zM263 619q11 0 11 -25q-1 -20 -16 -20q-50 0 -99.5 -2.5t-93.5 -6.5t-46 -4h-5q-28 0 -28 22q2 28 20.5 38t66.5 10q7 0 32 0.5t40 0.5q90 0 118 -13z" />
    <glyph glyph-name="Ibreve" unicode="&#x12c;" horiz-adv-x="315" 
d="M193 -77q-9 -7 -26 -7q-32 0 -65 31t-33 333q0 38 0.5 115t0.5 113q0 58 -5 134.5t-5 114.5q0 59 16.5 92t68.5 33q98 0 98 -288q0 -147 -12.5 -315t-24.5 -262zM270 1109q-14 -73 -53.5 -112t-86.5 -39q-50 0 -86 42.5t-36 118.5q0 24 22 24q10 0 29 -39q1 -1 1.5 -2
t0.5 -2q36 -81 79 -81q24 0 44.5 26.5t31.5 69.5q7 23 30 23q24 0 24 -29z" />
    <glyph glyph-name="ibreve" unicode="&#x12d;" horiz-adv-x="338" 
d="M51 430q2 20 23.5 33.5t45.5 13.5q21 0 34 -11.5t13 -35.5v-136q0 -201 17 -201q10 0 56.5 54t87.5 108l42 54q24 34 45 34q16 0 16 -19q0 -9 -3.5 -22t-7.5 -21l-3 -8q-3 -7 -8 -18t-22.5 -44t-36.5 -63t-47.5 -66.5t-58 -63t-66.5 -44.5t-74 -18q-83 0 -83 193
q0 58 7.5 128.5t15.5 111.5zM261 705q-14 -73 -53.5 -112t-86.5 -39q-50 0 -86 42.5t-36 118.5q0 24 22 24q10 0 29 -39q1 -3 2 -4q36 -81 79 -81q24 0 44.5 26.5t31.5 69.5q7 23 30 23q24 0 24 -29z" />
    <glyph glyph-name="Iogonek" unicode="&#x12e;" horiz-adv-x="315" 
d="M146 -238q-37 0 -65 25t-28 62q0 26 16 51.5t41 39.5l-8 7q-33 31 -33 333q0 38 0.5 115t0.5 113q0 58 -5 134.5t-5 114.5q0 59 16.5 92t68.5 33q98 0 98 -288q0 -147 -12.5 -315t-24.5 -262l-13 -94q-9 -7 -26 -7h-1l-16 -13q-24 -24 -24 -43t21 -32t42 -13q5 0 13.5 3
t12.5 3q12 0 12 -13q0 -16 -25 -31t-56 -15z" />
    <glyph glyph-name="iogonek" unicode="&#x12f;" horiz-adv-x="338" 
d="M167 638q11 0 17 -9t6 -21q0 -27 -22 -54.5t-44 -27.5q-57 0 -57 41q0 16 37.5 43.5t62.5 27.5zM51 430q2 20 23.5 33.5t45.5 13.5q21 0 34 -11.5t13 -35.5v-136q0 -201 17 -201q10 0 56.5 54t87.5 108l42 54q24 34 45 34q16 0 16 -19q0 -9 -3.5 -22t-7.5 -21l-3 -8
q-4 -9 -11.5 -25.5t-32 -60t-51 -80.5t-66 -76t-78.5 -57l-1 -1q-24 -24 -24 -43t21 -32t42 -13q5 0 13.5 3t12.5 3q12 0 12 -13q0 -16 -25 -31t-56 -15q-37 0 -65 25t-28 62q0 19 9 39q-68 15 -68 191q0 58 7.5 128.5t15.5 111.5z" />
    <glyph glyph-name="Idotaccent" unicode="&#x130;" horiz-adv-x="315" 
d="M193 -77q-9 -7 -26 -7q-32 0 -65 31t-33 333q0 38 0.5 115t0.5 113q0 58 -5 134.5t-5 114.5q0 59 16.5 92t68.5 33q98 0 98 -288q0 -147 -12.5 -315t-24.5 -262zM175 1060q11 0 17 -9t6 -21q0 -27 -22 -54.5t-44 -27.5q-57 0 -57 41q0 16 37.5 43.5t62.5 27.5z" />
    <glyph glyph-name="dotlessi" unicode="&#x131;" horiz-adv-x="338" 
d="M51 430q2 20 23.5 33.5t45.5 13.5q21 0 34 -11.5t13 -35.5v-136q0 -201 17 -201q10 0 56.5 54t87.5 108l42 54q24 34 45 34q16 0 16 -19q0 -9 -3.5 -22t-7.5 -21l-3 -8q-3 -7 -8 -18t-22.5 -44t-36.5 -63t-47.5 -66.5t-58 -63t-66.5 -44.5t-74 -18q-83 0 -83 193
q0 58 7.5 128.5t15.5 111.5z" />
    <glyph glyph-name="IJ" unicode="&#x132;" horiz-adv-x="837" 
d="M193 -77q-9 -7 -26 -7q-32 0 -65 31t-33 333q0 38 0.5 115t0.5 113q0 58 -5 134.5t-5 114.5q0 59 16.5 92t68.5 33q98 0 98 -288q0 -147 -12.5 -315t-24.5 -262zM739 798q0 -80 8 -201t8 -172q0 -127 -32 -241q-22 -79 -55.5 -135.5t-71.5 -85t-73 -40.5t-71 -12
q-41 0 -70 12q-26 10 -45 32t-27.5 46.5t-12 43t-3.5 30.5q10 39 34 39q6 0 14 -3q6 -3 20 -25t36.5 -40.5t52.5 -18.5q32 0 55 41.5t34 102t15.5 107.5t4.5 78q0 67 -13 179.5t-13 161.5q0 189 107 189q31 0 53 -12t30.5 -29.5t11.5 -28.5t3 -18z" />
    <glyph glyph-name="ij" unicode="&#x133;" horiz-adv-x="664" 
d="M392 622q-42 0 -42 25q0 19 25.5 37.5t51.5 18.5q21 0 45 -11t24 -30q0 -18 -39 -29t-65 -11zM167 638q11 0 17 -9t6 -21q0 -27 -22 -54.5t-44 -27.5q-57 0 -57 41q0 16 37.5 43.5t62.5 27.5zM51 430q2 20 23.5 33.5t45.5 13.5q21 0 34 -11.5t13 -35.5v-136
q0 -201 17 -201q18 0 140 156q0 78 7.5 128t22.5 72t29 28.5t34 6.5q54 0 75.5 -21.5t21.5 -71.5q0 -19 -9.5 -157.5t-9.5 -267.5q0 -94 -14.5 -168.5t-39.5 -121.5t-54.5 -79.5t-65.5 -48.5t-65.5 -22.5t-60.5 -6.5q-20 0 -38.5 2.5t-27.5 4.5l-9 2q-28 4 -28 30q0 5 1 8
q3 13 15.5 18.5t30 4.5t38.5 3t42.5 12t42 34t36 66.5t25 112t9.5 167.5q0 17 -5 130q-112 -158 -223 -158q-83 0 -83 193q0 58 7.5 128.5t15.5 111.5z" />
    <glyph glyph-name="Jcircumflex" unicode="&#x134;" horiz-adv-x="562" 
d="M464 798q0 -80 8 -201t8 -172q0 -127 -32 -241q-22 -79 -55.5 -135.5t-71.5 -85t-73 -40.5t-71 -12q-41 0 -70 12q-26 10 -45 32t-27.5 46.5t-12 43t-3.5 30.5q10 39 34 39q7 0 14 -3q6 -3 20 -25t36.5 -40.5t52.5 -18.5q32 0 55 41.5t34 102t15.5 107.5t4.5 78
q0 67 -13 179.5t-13 161.5q0 189 107 189q31 0 53 -12t30.5 -29.5t11.5 -28.5t3 -18zM432 1088q81 -117 81 -143q0 -19 -25 -21h-2q-13 0 -36 24t-54.5 64t-42.5 52q-43 -38 -93 -109q-20 -29 -42 -29t-22 24q0 32 22 64q80 118 144 118q39 0 70 -44z" />
    <glyph glyph-name="jcircumflex" unicode="&#x135;" horiz-adv-x="385" 
d="M125 484q54 0 75.5 -21.5t21.5 -71.5q0 -19 -9.5 -157.5t-9.5 -267.5q0 -94 -14.5 -168.5t-39.5 -121.5t-54.5 -79.5t-65.5 -48.5t-65.5 -22.5t-60.5 -6.5q-20 0 -38.5 2.5t-27.5 4.5l-9 2q-28 4 -28 30q0 5 1 8q3 13 15.5 18.5t30 4.5t38.5 3t42.5 12t42 34t36 66.5
t25 112t9.5 167.5q0 40 -4 126t-4 136q0 64 5.5 109.5t14 70t22 38t24.5 17t27 3.5zM225 729q81 -117 81 -143q0 -19 -25 -21h-2q-13 0 -36 24t-54.5 64t-42.5 52q-43 -38 -93 -109q-20 -29 -42 -29t-22 24q0 32 22 64q80 118 144 118q39 0 70 -44z" />
    <glyph glyph-name="Kcommaaccent" unicode="&#x136;" horiz-adv-x="592" 
d="M469 768q27 40 46 40q23 0 23 -32l-4 -31q-29 -119 -240 -357q37 -33 123 -147.5t113 -139.5q43 -40 43 -74q0 -25 -27 -49t-54 -24q-54 0 -121 90q-73 98 -136 214l-10 -310q-28 -28 -65 -28q-97 0 -97 189q0 29 3 140.5t3 198.5q0 75 2.5 132t10.5 115.5t21 96
t36.5 61.5t55.5 24q40 0 42 -403q50 73 134 174t98 120zM298 -81q65 0 65 -75q0 -66 -41.5 -121.5t-84.5 -55.5q-10 0 -24 5.5t-14 15.5q0 7 13.5 24.5t27.5 45t14 59.5q0 102 44 102z" />
    <glyph glyph-name="kcommaaccent" unicode="&#x137;" horiz-adv-x="569" 
d="M424 531q5 0 12 -1.5t18.5 -10.5t11.5 -24q0 -16 -83.5 -99.5t-163.5 -152.5q29 -20 53 -52t37.5 -57.5t34.5 -44.5t47 -19q36 0 71.5 20t61.5 48.5t47 57t31 48.5l11 20q21 42 40 42q5 0 9 -4q8 -8 8 -26q0 -9 -2 -19.5t-4 -16.5l-2 -6q-4 -11 -11 -28.5t-33.5 -62
t-57.5 -79t-84 -62.5t-112 -28q-25 0 -50 12t-42.5 27t-37.5 41.5t-29.5 42.5t-25 43.5t-17.5 31.5q-68 -191 -106 -191q-52 0 -52 106q0 46 9.5 111t24.5 130.5t29 119t28 102.5t15 55q11 46 41 68.5t63 22.5q29 0 46 -15.5t21 -31t4 -32.5q0 -13 -21.5 -101.5
t-50.5 -186.5q56 75 121 138.5t90 63.5zM188 -48q65 0 65 -75q0 -66 -41.5 -121.5t-84.5 -55.5q-10 0 -24 5.5t-14 15.5q0 7 13.5 24.5t27.5 45t14 59.5q0 102 44 102z" />
    <glyph glyph-name="kgreenlandic" unicode="&#x138;" horiz-adv-x="569" 
d="M424 531q5 0 12 -1.5t18.5 -10.5t11.5 -24q0 -16 -83.5 -99.5t-163.5 -152.5q29 -20 53 -52t37.5 -57.5t34.5 -44.5t47 -19q36 0 71.5 20t61.5 48.5t47 57t31 48.5l11 20q21 42 40 42q5 0 9 -4q8 -8 8 -26q0 -9 -2 -19.5t-4 -16.5l-2 -6q-4 -11 -11 -28.5t-33.5 -62
t-57.5 -79t-84 -62.5t-112 -28q-25 0 -50 12t-42.5 27t-37.5 41.5t-29.5 42.5t-25 43.5t-17.5 31.5q-68 -191 -106 -191q-52 0 -52 106q0 57 9 117.5t18.5 97t22.5 78.5t15 50q11 46 41 68.5t63 22.5q29 0 46 -15.5t21 -31t4 -32.5q0 -4 1 -5l-3 -13q-13 -39 -29 -95
q56 75 121 138.5t90 63.5z" />
    <glyph glyph-name="Lacute" unicode="&#x139;" horiz-adv-x="560" 
d="M101 864q62 0 92 -47q20 -31 34 -131t14 -188q0 -10 3 -109t3 -168q0 -100 -5 -159q90 5 126 5q166 0 166 -43q0 -38 -19.5 -55.5t-87.5 -26.5t-214 -9q-25 0 -45 5.5t-35 12t-26.5 22.5t-19 26.5t-12.5 34.5t-7.5 36.5t-3.5 43t-1.5 42t-0.5 45.5q0 47 -3.5 188
t-3.5 214q0 261 46 261zM207 1115q14 0 23 -12t9 -28q0 -39 -30 -93.5t-67 -54.5q-21 0 -38 24q2 3 15 17t25.5 33t18.5 42q20 72 44 72z" />
    <glyph glyph-name="lacute" unicode="&#x13a;" horiz-adv-x="405" 
d="M134 898q7 16 31 16q20 0 51 -16q39 -20 39 -144q0 -115 -50 -478q-15 -100 -15 -163q0 -83 27 -83q30 0 98.5 82t108.5 164q29 60 54 60q13 0 13 -19q0 -12 -4.5 -30t-8.5 -30l-5 -12q-3 -7 -7.5 -18t-20.5 -43.5t-33 -62.5t-43.5 -66t-52.5 -62t-59.5 -44t-66.5 -18
q-89 0 -128 51.5t-39 173.5q0 106 26.5 277.5t84.5 464.5zM223 1174q14 0 23 -12t9 -28q0 -39 -30 -93.5t-67 -54.5q-21 0 -38 24q2 3 15 17t25.5 33t18.5 42q20 72 44 72z" />
    <glyph glyph-name="Lcommaaccent" unicode="&#x13b;" horiz-adv-x="560" 
d="M101 864q62 0 92 -47q20 -31 34 -131t14 -188q0 -10 3 -109t3 -168q0 -100 -5 -159q90 5 126 5q166 0 166 -43q0 -38 -19.5 -55.5t-87.5 -26.5t-214 -9q-25 0 -45 5.5t-35 12t-26.5 22.5t-19 26.5t-12.5 34.5t-7.5 36.5t-3.5 43t-1.5 42t-0.5 45.5q0 47 -3.5 188
t-3.5 214q0 261 46 261zM280 -115q-44 0 -44 -102q0 -32 -14 -59.5t-27.5 -45t-13.5 -24.5q0 -10 14 -15.5t24 -5.5q43 0 84.5 55.5t41.5 121.5q0 75 -65 75z" />
    <glyph glyph-name="lcommaaccent" unicode="&#x13c;" horiz-adv-x="405" 
d="M134 898q7 16 31 16q20 0 51 -16q39 -20 39 -144q0 -115 -50 -478q-15 -100 -15 -163q0 -83 27 -83q30 0 98.5 82t108.5 164q29 60 54 60q13 0 13 -19q0 -12 -4.5 -30t-8.5 -30l-5 -12q-3 -7 -7.5 -18t-20.5 -43.5t-33 -62.5t-43.5 -66t-52.5 -62t-59.5 -44t-66.5 -18
q-89 0 -128 51.5t-39 173.5q0 106 26.5 277.5t84.5 464.5zM185 -127q-44 0 -44 -102q0 -32 -13.5 -59.5t-27.5 -45t-14 -24.5q0 -10 14 -15.5t24 -5.5q43 0 84.5 55.5t41.5 121.5q0 75 -65 75z" />
    <glyph glyph-name="Lcaron" unicode="&#x13d;" horiz-adv-x="560" 
d="M101 864q62 0 92 -47q20 -31 34 -131t14 -188q0 -10 3 -109t3 -168q0 -100 -5 -159q90 5 126 5q166 0 166 -43q0 -38 -19.5 -55.5t-87.5 -26.5t-214 -9q-25 0 -45 5.5t-35 12t-26.5 22.5t-19 26.5t-12.5 34.5t-7.5 36.5t-3.5 43t-1.5 42t-0.5 45.5q0 47 -3.5 188
t-3.5 214q0 261 46 261zM345 889q33 0 33 -84q0 -41 -27 -71.5t-50 -30.5q-16 0 -16 18q0 12 7.5 21t15.5 30t8 61q0 56 29 56z" />
    <glyph glyph-name="lcaron" unicode="&#x13e;" horiz-adv-x="405" 
d="M134 898q7 16 31 16q20 0 51 -16q39 -20 39 -144q0 -115 -50 -478q-15 -100 -15 -163q0 -83 27 -83q30 0 98.5 82t108.5 164q29 60 54 60q13 0 13 -19q0 -12 -4.5 -30t-8.5 -30l-5 -12q-3 -7 -7.5 -18t-20.5 -43.5t-33 -62.5t-43.5 -66t-52.5 -62t-59.5 -44t-66.5 -18
q-89 0 -128 51.5t-39 173.5q0 106 26.5 277.5t84.5 464.5zM414 888q-29 0 -29 -56q0 -40 -7.5 -61t-15.5 -30t-8 -21q0 -18 16 -18q23 0 50 30.5t27 71.5q0 84 -33 84z" />
    <glyph glyph-name="Ldot" unicode="&#x13f;" horiz-adv-x="560" 
d="M101 864q62 0 92 -47q20 -31 34 -131t14 -188q0 -10 3 -109t3 -168q0 -100 -5 -159q90 5 126 5q166 0 166 -43q0 -38 -19.5 -55.5t-87.5 -26.5t-214 -9q-25 0 -45 5.5t-35 12t-26.5 22.5t-19 26.5t-12.5 34.5t-7.5 36.5t-3.5 43t-1.5 42t-0.5 45.5q0 47 -3.5 188
t-3.5 214q0 261 46 261zM393 444q-25 0 -62.5 -27.5t-37.5 -43.5q0 -41 57 -41q22 0 44 27.5t22 54.5q0 12 -6 21t-17 9z" />
    <glyph glyph-name="ldot" unicode="&#x140;" horiz-adv-x="405" 
d="M134 898q7 16 31 16q20 0 51 -16q39 -20 39 -144q0 -115 -50 -478q-15 -100 -15 -163q0 -83 27 -83q30 0 98.5 82t108.5 164q29 60 54 60q13 0 13 -19q0 -12 -4.5 -30t-8.5 -30l-5 -12q-3 -7 -7.5 -18t-20.5 -43.5t-33 -62.5t-43.5 -66t-52.5 -62t-59.5 -44t-66.5 -18
q-89 0 -128 51.5t-39 173.5q0 106 26.5 277.5t84.5 464.5zM418 558q-18 6 -34 6q-45 0 -74.5 -29.5t-29.5 -48.5q0 -16 22.5 -40t49.5 -24q28 0 63.5 32t35.5 63q0 27 -33 41z" />
    <glyph glyph-name="Lslash" unicode="&#x141;" horiz-adv-x="560" 
d="M101 864q62 0 92 -47q20 -31 34 -131t14 -188v-6q25 6 43 9q16 0 25.5 -14t9.5 -32q0 -30 -21 -39l-54 -25q3 -150 3 -170q0 -100 -5 -159q90 5 126 5q166 0 166 -43q0 -38 -19.5 -55.5t-87.5 -26.5t-214 -9q-43 0 -72 15t-44 36t-23 59t-9.5 67.5t-2.5 78.5v12l-2 116
q-3 -1 -9 -1h-6q-36 0 -36 41q0 33 48 64q-2 124 -2 182q0 261 46 261z" />
    <glyph glyph-name="lslash" unicode="&#x142;" horiz-adv-x="405" 
d="M134 898q7 16 31 16q20 0 51 -16q39 -20 39 -144q0 -82 -16 -215l54 12q16 0 25.5 -14t9.5 -32q0 -30 -21 -39l-82 -38l-20 -152q-15 -120 -15 -163q0 -83 27 -83q30 0 98.5 82t108.5 164q29 60 54 60q13 0 13 -19q0 -12 -4.5 -30t-8.5 -30l-5 -12q-3 -7 -7.5 -18
t-20.5 -43.5t-33 -62.5t-43.5 -66t-52.5 -62t-59.5 -44t-66.5 -18q-89 0 -128 51.5t-39 173.5q0 74 14 191q-11 -3 -17 -3h-6q-36 0 -36 41q0 36 76 81q24 151 80 432z" />
    <glyph glyph-name="Nacute" unicode="&#x143;" horiz-adv-x="667" 
d="M148 847q19 10 32 10q9 0 17 -3.5t11 -7.5l3 -3q11 0 72 -151.5t117 -303.5l55 -152q-1 8 -1 27q0 67 27 264.5t27 267.5q0 41 17.5 59.5t42.5 18.5q18 0 33.5 -8.5t15.5 -17.5q0 -239 -21.5 -457.5t-46 -331.5t-41.5 -123q-15 -10 -41 -10q-27 0 -40 9q-25 16 -86 132
t-110 224l-49 107q0 -246 -10.5 -346t-53.5 -118q-15 -6 -28 -6q-28 0 -30 17q-6 39 -6 108q0 197 34.5 490t59.5 305zM418 1072q14 0 23 -12t9 -28q0 -39 -30 -93.5t-67 -54.5q-21 0 -38 24q2 3 15 17t25.5 33t18.5 42q20 72 44 72z" />
    <glyph glyph-name="nacute" unicode="&#x144;" horiz-adv-x="504" 
d="M64 468q9 34 46 34q24 0 42.5 -20t18.5 -57l-7 -91q84 140 156 140q50 0 65.5 -41.5t15.5 -145.5q0 -24 -1 -91.5t-1 -111.5q0 -113 -75 -113q-18 0 -31.5 26t-13.5 63q0 52 9 160t9 138q0 42 -10 42q-23 0 -154 -280q-32 -149 -83 -149q-40 0 -57 13.5t-17 48.5
q0 29 11 82.5t35 156t42 196.5zM285 736q14 0 23 -12t9 -28q0 -39 -30 -93.5t-67 -54.5q-21 0 -38 24q2 3 15 17t25.5 33t18.5 42q20 72 44 72z" />
    <glyph glyph-name="Ncommaaccent" unicode="&#x145;" horiz-adv-x="667" 
d="M148 847q19 10 32 10q9 0 17 -3.5t11 -7.5l3 -3q11 0 72 -151.5t117 -303.5l55 -152q-1 8 -1 27q0 67 27 264.5t27 267.5q0 41 17.5 59.5t42.5 18.5q18 0 33.5 -8.5t15.5 -17.5q0 -239 -21.5 -457.5t-46 -331.5t-41.5 -123q-15 -10 -41 -10q-27 0 -40 9q-25 16 -86 132
t-110 224l-49 107q0 -246 -10.5 -346t-53.5 -118q-15 -6 -28 -6q-28 0 -30 17q-6 39 -6 108q0 197 34.5 490t59.5 305zM310 -73q65 0 65 -75q0 -66 -41.5 -121.5t-84.5 -55.5q-10 0 -24 5.5t-14 15.5q0 7 13.5 24.5t27.5 45t14 59.5q0 102 44 102z" />
    <glyph glyph-name="ncommaaccent" unicode="&#x146;" horiz-adv-x="504" 
d="M64 468q9 34 46 34q24 0 42.5 -20t18.5 -57l-7 -91q84 140 156 140q50 0 65.5 -41.5t15.5 -145.5q0 -24 -1 -91.5t-1 -111.5q0 -113 -75 -113q-18 0 -31.5 26t-13.5 63q0 52 9 160t9 138q0 42 -10 42q-23 0 -154 -280q-32 -149 -83 -149q-40 0 -57 13.5t-17 48.5
q0 29 11 82.5t35 156t42 196.5zM202 -55q-44 0 -44 -102q0 -32 -14 -59.5t-27.5 -45t-13.5 -24.5q0 -10 14 -15.5t24 -5.5q43 0 84.5 55.5t41.5 121.5q0 75 -65 75z" />
    <glyph glyph-name="Ncaron" unicode="&#x147;" horiz-adv-x="667" 
d="M148 847q19 10 32 10q9 0 17 -3.5t11 -7.5l3 -3q11 0 72 -151.5t117 -303.5l55 -152q-1 8 -1 27q0 67 27 264.5t27 267.5q0 41 17.5 59.5t42.5 18.5q18 0 33.5 -8.5t15.5 -17.5q0 -239 -21.5 -457.5t-46 -331.5t-41.5 -123q-15 -10 -41 -10q-27 0 -40 9q-25 16 -86 132
t-110 224l-49 107q0 -246 -10.5 -346t-53.5 -118q-15 -6 -28 -6q-28 0 -30 17q-6 39 -6 108q0 197 34.5 490t59.5 305zM279 920q-81 116 -81 143q0 15 25 20q14 0 37 -23t55.5 -64t42.5 -52q47 42 93 108q22 30 42 30q22 0 22 -24q0 -30 -23 -64q-80 -118 -143 -118
q-39 0 -70 44z" />
    <glyph glyph-name="ncaron" unicode="&#x148;" horiz-adv-x="504" 
d="M64 468q9 34 46 34q24 0 42.5 -20t18.5 -57l-7 -91q84 140 156 140q50 0 65.5 -41.5t15.5 -145.5q0 -24 -1 -91.5t-1 -111.5q0 -113 -75 -113q-18 0 -31.5 26t-13.5 63q0 52 9 160t9 138q0 42 -10 42q-23 0 -154 -280q-32 -149 -83 -149q-40 0 -57 13.5t-17 48.5
q0 29 11 82.5t35 156t42 196.5zM162 594q-81 116 -81 143q0 15 25 20q14 0 37 -23t55.5 -64t42.5 -52q47 42 93 108q22 30 42 30q22 0 22 -24q0 -30 -23 -64q-80 -118 -143 -118q-39 0 -70 44z" />
    <glyph glyph-name="Eng" unicode="&#x14a;" horiz-adv-x="667" 
d="M148 847q19 10 32 10q9 0 17 -3.5t11 -7.5l3 -3q11 0 72 -151.5t117 -303.5l55 -152q2 33 27.5 252t25.5 307q0 41 17.5 59.5t42.5 18.5q18 0 33.5 -8.5t15.5 -17.5q0 -308 -40 -631q-14 -113 -33 -197.5t-49.5 -160.5t-78 -116.5t-110.5 -40.5q-41 0 -70 12
q-26 10 -45 32t-27.5 46.5t-12 43t-3.5 30.5q10 39 34 39q6 0 14 -3q6 -3 20 -25t36.5 -40.5t52.5 -18.5q60 0 91 154q-33 50 -86.5 156.5t-90.5 188.5l-37 81q0 -246 -10.5 -346t-53.5 -118q-15 -6 -28 -6q-28 0 -30 17q-6 39 -6 108q0 197 34.5 490t59.5 305z" />
    <glyph glyph-name="eng" unicode="&#x14b;" horiz-adv-x="504" 
d="M64 468q9 34 46 34q24 0 42.5 -20t18.5 -57l-7 -91q84 140 156 140q50 0 65.5 -41.5t15.5 -145.5q0 -24 -1 -91.5t-1 -111.5q0 -20 -4 -46q-4 -88 -24.5 -154t-47.5 -102.5t-63.5 -59t-66.5 -29.5t-62 -7q-17 0 -33.5 2t-24.5 4l-8 2q-25 4 -25 27q0 4 1 7q4 16 30 24
t57 13.5t67 40.5t57 99q45 139 45 453q0 42 -10 42q-23 0 -154 -280q-32 -149 -83 -149q-40 0 -57 13.5t-17 48.5q0 29 11 82.5t35 156t42 196.5z" />
    <glyph glyph-name="Omacron" unicode="&#x14c;" horiz-adv-x="705" 
d="M357 39q24 0 42.5 26.5t33 81.5t22.5 147.5t8 217.5q0 247 -89 247q-19 0 -32 -4.5t-30.5 -19t-29.5 -47t-23 -83.5t-16.5 -135t-5.5 -194q0 -34 4.5 -68t15.5 -75.5t37 -67.5t63 -26zM38 261q0 578 299 578q16 0 34.5 -1.5t52.5 -8t63.5 -17.5t63 -33t57.5 -51t39.5 -75
t15.5 -103q0 -351 -136 -499q-83 -93 -242 -93q-36 0 -68 7t-66 27t-58 52.5t-39.5 88t-15.5 128.5zM494 962q11 0 11 -25q-1 -20 -16 -20q-50 0 -99.5 -2.5t-93.5 -6.5t-46 -4h-5q-28 0 -28 22q2 28 20.5 38t66.5 10q7 0 32 0.5t40 0.5q90 0 118 -13z" />
    <glyph glyph-name="omacron" unicode="&#x14d;" horiz-adv-x="443" 
d="M217 452q-32 0 -40 -19q19 -72 80 -125q-3 57 -15 100.5t-25 43.5zM169 93q58 0 79 94q-59 27 -91 75q-4 -53 -4 -95q0 -74 16 -74zM195 512q7 0 18 -1.5t40 -13t51.5 -32t40.5 -64t18 -102.5q0 -17 -2 -45q16 -4 36 -4q89 0 120 90q7 24 22 24q1 0 2 -0.5t2 -0.5
q8 -3 8 -15q0 -8 -2.5 -18t-4.5 -16l-3 -7q1 -1 -6 -15t-22.5 -35.5t-37 -42t-55.5 -35t-72 -14.5h-1q-14 -51 -38 -89t-50 -55.5t-46.5 -25.5t-34.5 -8q-13 0 -31 4.5t-41.5 18.5t-43 35.5t-33 60t-13.5 86.5q0 76 15.5 142t31.5 94l16 29q-10 3 -10 20q0 35 126 35z
M355 630q11 0 11 -25q-1 -20 -16 -20q-50 0 -99.5 -2.5t-93.5 -6.5t-46 -4h-5q-28 0 -28 22q2 28 20.5 38t66.5 10q7 0 32 0.5t40 0.5q90 0 118 -13z" />
    <glyph glyph-name="Obreve" unicode="&#x14e;" horiz-adv-x="705" 
d="M357 39q24 0 42.5 26.5t33 81.5t22.5 147.5t8 217.5q0 247 -89 247q-19 0 -32 -4.5t-30.5 -19t-29.5 -47t-23 -83.5t-16.5 -135t-5.5 -194q0 -34 4.5 -68t15.5 -75.5t37 -67.5t63 -26zM38 261q0 578 299 578q16 0 34.5 -1.5t52.5 -8t63.5 -17.5t63 -33t57.5 -51t39.5 -75
t15.5 -103q0 -351 -136 -499q-83 -93 -242 -93q-36 0 -68 7t-66 27t-58 52.5t-39.5 88t-15.5 128.5zM479 1050q-14 -73 -53.5 -112t-86.5 -39q-50 0 -86 42.5t-36 118.5q0 24 22 24q10 0 29 -39q1 -1 1.5 -2t0.5 -2q36 -81 79 -81q24 0 44.5 26.5t31.5 69.5q7 23 30 23
q24 0 24 -29z" />
    <glyph glyph-name="obreve" unicode="&#x14f;" horiz-adv-x="443" 
d="M217 452q-32 0 -40 -19q19 -72 80 -125q-3 57 -15 100.5t-25 43.5zM169 93q58 0 79 94q-59 27 -91 75q-4 -53 -4 -95q0 -74 16 -74zM195 512q7 0 18 -1.5t40 -13t51.5 -32t40.5 -64t18 -102.5q0 -17 -2 -45q16 -4 36 -4q89 0 120 90q7 24 22 24q1 0 2 -0.5t2 -0.5
q8 -3 8 -15q0 -8 -2.5 -18t-4.5 -16l-3 -7q1 -1 -6 -15t-22.5 -35.5t-37 -42t-55.5 -35t-72 -14.5h-1q-14 -51 -38 -89t-50 -55.5t-46.5 -25.5t-34.5 -8q-13 0 -31 4.5t-41.5 18.5t-43 35.5t-33 60t-13.5 86.5q0 76 15.5 142t31.5 94l16 29q-10 3 -10 20q0 35 126 35z
M331 727q-14 -73 -53.5 -112t-86.5 -39q-50 0 -86 42.5t-36 118.5q0 24 22 24q10 0 29 -39q1 -1 1.5 -2t0.5 -2q36 -81 79 -81q24 0 44.5 26.5t31.5 69.5q7 23 30 23q24 0 24 -29z" />
    <glyph glyph-name="Ohungarumlaut" unicode="&#x150;" horiz-adv-x="705" 
d="M357 39q24 0 42.5 26.5t33 81.5t22.5 147.5t8 217.5q0 247 -89 247q-19 0 -32 -4.5t-30.5 -19t-29.5 -47t-23 -83.5t-16.5 -135t-5.5 -194q0 -34 4.5 -68t15.5 -75.5t37 -67.5t63 -26zM38 261q0 578 299 578q16 0 34.5 -1.5t52.5 -8t63.5 -17.5t63 -33t57.5 -51t39.5 -75
t15.5 -103q0 -351 -136 -499q-83 -93 -242 -93q-36 0 -68 7t-66 27t-58 52.5t-39.5 88t-15.5 128.5zM446 1080q14 0 23 -12t9 -28q0 -39 -30 -93.5t-67 -54.5q-21 0 -38 24q2 3 15 17t25.5 33t18.5 42q20 72 44 72zM320 1080q14 0 23 -12t9 -28q0 -39 -30 -93.5t-67 -54.5
q-21 0 -38 24q2 3 15 17t25.5 33t18.5 42q20 72 44 72z" />
    <glyph glyph-name="ohungarumlaut" unicode="&#x151;" horiz-adv-x="443" 
d="M217 452q-32 0 -40 -19q19 -72 80 -125q-3 57 -15 100.5t-25 43.5zM169 93q58 0 79 94q-59 27 -91 75q-4 -53 -4 -95q0 -74 16 -74zM195 512q7 0 18 -1.5t40 -13t51.5 -32t40.5 -64t18 -102.5q0 -17 -2 -45q16 -4 36 -4q89 0 120 90q7 24 22 24q1 0 2 -0.5t2 -0.5
q8 -3 8 -15q0 -8 -2.5 -18t-4.5 -16l-3 -7q1 -1 -6 -15t-22.5 -35.5t-37 -42t-55.5 -35t-72 -14.5h-1q-14 -51 -38 -89t-50 -55.5t-46.5 -25.5t-34.5 -8q-13 0 -31 4.5t-41.5 18.5t-43 35.5t-33 60t-13.5 86.5q0 76 15.5 142t31.5 94l16 29q-10 3 -10 20q0 35 126 35z
M320 746q14 0 23 -12t9 -28q0 -39 -30 -93.5t-67 -54.5q-21 0 -38 24q2 3 15 17t25.5 33t18.5 42q20 72 44 72zM194 746q14 0 23 -12t9 -28q0 -39 -30 -93.5t-67 -54.5q-21 0 -38 24q2 3 15 17t25.5 33t18.5 42q20 72 44 72z" />
    <glyph glyph-name="OE" unicode="&#x152;" horiz-adv-x="1008" 
d="M357 39q24 0 42.5 26.5t33 81.5t22.5 147.5t8 217.5q0 247 -89 247q-19 0 -32 -4.5t-30.5 -19t-29.5 -47t-23 -83.5t-16.5 -135t-5.5 -194q0 -34 4.5 -68t15.5 -75.5t37 -67.5t63 -26zM859 395q-83 -30 -172 -30h-9q6 -132 34 -221.5t73 -89.5q31 0 52 7t29 15t20 15
t29 7q20 0 30 -11t10 -28q0 -20 -11 -37q-30 -47 -144 -47q-171 0 -253 100q-103 -117 -262 -117q-36 0 -68 7t-66 27t-58 52.5t-39.5 88t-15.5 128.5q0 578 299 578q132 0 222 -66q8 9 17 17q0 19 5 25.5t20 6.5q83 0 309 -30q27 -4 36.5 -12t10.5 -24v-1q0 -17 -10.5 -30
t-20.5 -17l-10 -4q-60 -20 -212 -24q-25 -87 -27 -216h5q139 0 178 -15q14 -5 14 -26q0 -22 -15 -28z" />
    <glyph glyph-name="oe" unicode="&#x153;" horiz-adv-x="598" 
d="M217 452q-32 0 -40 -19q19 -72 80 -125q-3 57 -15 100.5t-25 43.5zM382 283q61 56 61 105q0 27 -16 44t-34 17q-24 0 -24 -27v-1q0 -57 13 -138zM169 93q58 0 79 94q-59 27 -91 75q-4 -53 -4 -95q0 -74 16 -74zM514 79q29 0 55 42t40.5 92t29 92t22.5 42q26 0 26 -65
q0 -43 -13.5 -95t-37.5 -102t-65.5 -83.5t-91.5 -33.5q-108 0 -160 125q-31 -56 -72.5 -81t-68.5 -25q-13 0 -31 4.5t-41.5 18.5t-43 35.5t-33 60t-13.5 86.5q0 76 15.5 142t31.5 94l16 29q-10 3 -10 20q0 35 126 35q7 0 19 -1.5t41.5 -14.5t51.5 -35q39 52 101 52
q46 0 78.5 -31.5t32.5 -86.5q0 -57 -33.5 -114t-84.5 -88q36 -114 113 -114z" />
    <glyph glyph-name="Racute" unicode="&#x154;" horiz-adv-x="630" 
d="M243 429q11 -18 65 -18q36 0 55.5 47.5t19.5 116.5q0 81 -25 144.5t-67 63.5q-33 0 -63 -16q15 -101 15 -338zM299 846q72 0 126 -43t78 -101t24 -117q0 -37 -4 -66.5t-15 -61t-34 -56t-58 -38.5q26 -35 79.5 -141t73.5 -132q26 -32 26 -59q0 -23 -25.5 -38.5
t-49.5 -15.5q-56 0 -106 99q-61 119 -102 268h-12q-37 0 -58 4l-12 -368q-30 -24 -71 -24q-112 0 -112 179q0 32 4 129t5 167q2 103 4 160.5t8 110.5t14 76t24.5 41.5t36.5 22.5t53 4q6 0 11 -7q42 7 92 7zM356 1084q14 0 23 -12t9 -28q0 -39 -30 -93.5t-67 -54.5
q-21 0 -38 24q2 3 15 17t25.5 33t18.5 42q20 72 44 72z" />
    <glyph glyph-name="racute" unicode="&#x155;" horiz-adv-x="287" 
d="M71 488q0 -21 13 -49q5 43 5 67q0 31 -10 31q-8 0 -8 -49zM87 270l-25 20q1 6 2 14q-5 7 -21.5 28t-23.5 30.5t-19.5 29t-18 34t-10.5 34t-5 39.5q0 26 10.5 61t34.5 35q6 0 36 7t48 7q65 0 65 -79q0 -97 -29 -175q71 -118 71 -211q0 -55 -11.5 -105t-25 -79t-25 -55
t-11.5 -38q0 -16 3 -26t7.5 -19t6.5 -16q1 -4 1 -12q0 -14 -6.5 -25t-12.5 -15l-7 -4q-8 -3 -21 -3q-15 0 -28.5 6.5t-29 23.5t-25 55t-9.5 93q0 41 52.5 142t52.5 125q0 37 -25 79zM130 853q14 0 23 -12t9 -28q0 -39 -30 -93.5t-67 -54.5q-21 0 -38 24q2 3 15 17t25.5 33
t18.5 42q20 72 44 72z" />
    <glyph glyph-name="Rcommaaccent" unicode="&#x156;" horiz-adv-x="630" 
d="M243 429q11 -18 65 -18q36 0 55.5 47.5t19.5 116.5q0 81 -25 144.5t-67 63.5q-33 0 -63 -16q15 -101 15 -338zM299 846q72 0 126 -43t78 -101t24 -117q0 -37 -4 -66.5t-15 -61t-34 -56t-58 -38.5q26 -35 79.5 -141t73.5 -132q26 -32 26 -59q0 -23 -25.5 -38.5
t-49.5 -15.5q-56 0 -106 99q-61 119 -102 268h-12q-37 0 -58 4l-12 -368q-30 -24 -71 -24q-112 0 -112 179q0 32 4 129t5 167q2 103 4 160.5t8 110.5t14 76t24.5 41.5t36.5 22.5t53 4q6 0 11 -7q42 7 92 7zM301 -54q-44 0 -44 -102q0 -32 -13.5 -59.5t-27.5 -45t-14 -24.5
q0 -10 14 -15.5t24 -5.5q43 0 84.5 55.5t41.5 121.5q0 75 -65 75z" />
    <glyph glyph-name="rcommaaccent" unicode="&#x157;" horiz-adv-x="287" 
d="M71 488q0 -21 13 -49q5 43 5 67q0 31 -10 31q-8 0 -8 -49zM87 270l-25 20q1 6 2 14q-5 7 -21.5 28t-23.5 30.5t-19.5 29t-18 34t-10.5 34t-5 39.5q0 26 10.5 61t34.5 35q6 0 36 7t48 7q65 0 65 -79q0 -97 -29 -175q71 -118 71 -211q0 -55 -11.5 -105t-25 -79t-25 -55
t-11.5 -38q0 -16 3 -26t7.5 -19t6.5 -16q1 -4 1 -12q0 -14 -6.5 -25t-12.5 -15l-7 -4q-8 -3 -21 -3q-15 0 -28.5 6.5t-29 23.5t-25 55t-9.5 93q0 41 52.5 142t52.5 125q0 37 -25 79zM21 -342q65 0 65 -75q0 -66 -41.5 -121.5t-84.5 -55.5q-10 0 -24 5.5t-14 15.5
q0 7 14 24.5t27.5 45t13.5 59.5q0 102 44 102z" />
    <glyph glyph-name="Rcaron" unicode="&#x158;" horiz-adv-x="630" 
d="M243 429q11 -18 65 -18q36 0 55.5 47.5t19.5 116.5q0 81 -25 144.5t-67 63.5q-33 0 -63 -16q15 -101 15 -338zM299 846q72 0 126 -43t78 -101t24 -117q0 -37 -4 -66.5t-15 -61t-34 -56t-58 -38.5q26 -35 79.5 -141t73.5 -132q26 -32 26 -59q0 -23 -25.5 -38.5
t-49.5 -15.5q-56 0 -106 99q-61 119 -102 268h-12q-37 0 -58 4l-12 -368q-30 -24 -71 -24q-112 0 -112 179q0 32 4 129t5 167q2 103 4 160.5t8 110.5t14 76t24.5 41.5t36.5 22.5t53 4q6 0 11 -7q42 7 92 7zM209 957q-81 116 -81 143q0 15 25 20q14 0 37 -23t55.5 -64
t42.5 -52q47 42 93 108q22 30 42 30q22 0 22 -24q0 -30 -23 -64q-80 -118 -143 -118q-39 0 -70 44z" />
    <glyph glyph-name="rcaron" unicode="&#x159;" horiz-adv-x="287" 
d="M71 488q0 -21 13 -49q5 43 5 67q0 31 -10 31q-8 0 -8 -49zM87 270l-25 20q1 6 2 14q-5 7 -21.5 28t-23.5 30.5t-19.5 29t-18 34t-10.5 34t-5 39.5q0 26 10.5 61t34.5 35q6 0 36 7t48 7q65 0 65 -79q0 -97 -29 -175q71 -118 71 -211q0 -55 -11.5 -105t-25 -79t-25 -55
t-11.5 -38q0 -16 3 -26t7.5 -19t6.5 -16q1 -4 1 -12q0 -14 -6.5 -25t-12.5 -15l-7 -4q-8 -3 -21 -3q-15 0 -28.5 6.5t-29 23.5t-25 55t-9.5 93q0 41 52.5 142t52.5 125q0 37 -25 79zM6 714q-81 116 -81 143q0 15 25 20q14 0 37 -23t55.5 -64t42.5 -52q47 42 93 108
q22 30 42 30q22 0 22 -24q0 -30 -23 -64q-80 -118 -143 -118q-39 0 -70 44z" />
    <glyph glyph-name="Sacute" unicode="&#x15a;" horiz-adv-x="504" 
d="M335 848q29 0 51.5 -10t33 -24.5t15 -25t4.5 -16.5q0 -11 -9.5 -25.5t-27.5 -14.5q-8 0 -28 21.5t-42 21.5q-87 0 -87 -149q0 -70 16 -128.5t39.5 -98t46.5 -75t39 -77.5t16 -89q0 -101 -65 -153t-172 -52q-61 0 -95.5 33t-34.5 70q0 19 10 31t27 12q15 0 24 -10.5
t12.5 -23.5t14.5 -23.5t30 -10.5q33 0 45 19.5t12 60.5q0 35 -35 103t-70 148.5t-35 146.5q0 83 21 147.5t50.5 99.5t68.5 57t68.5 28.5t56.5 6.5zM294 1080q14 0 23 -12t9 -28q0 -39 -30 -93.5t-67 -54.5q-21 0 -38 24q2 3 15 17t25.5 33t18.5 42q20 72 44 72z" />
    <glyph glyph-name="sacute" unicode="&#x15b;" horiz-adv-x="497" 
d="M229 -25q0 26 -17 67q-49 -51 -49 -108q0 -20 9 -33.5t21 -13.5q14 0 25 22t11 66zM210 552q71 0 71 -24q0 -25 -26 -25q-1 0 -9 1t-15 1q-68 0 -68 -68q0 -33 16.5 -69.5t57 -100t53.5 -86.5q22 11 78 38t82.5 41.5t59.5 39t48 48.5q13 20 23 20q6 0 12 -4t6 -11
q0 -17 -25 -63q-13 -22 -43 -46t-58 -40t-77.5 -42t-74.5 -41q31 -71 31 -126q0 -59 -16.5 -100.5t-42 -59.5t-46.5 -25t-40 -7q-24 0 -39.5 3.5t-35.5 16t-30.5 44t-10.5 80.5q0 92 86 163q-14 24 -49 77t-54 85t-36.5 74t-17.5 74q0 132 190 132zM259 797q14 0 23 -12
t9 -28q0 -39 -30 -93.5t-67 -54.5q-21 0 -38 24q2 3 15 17t25.5 33t18.5 42q20 72 44 72z" />
    <glyph glyph-name="Scircumflex" unicode="&#x15c;" horiz-adv-x="504" 
d="M335 848q29 0 51.5 -10t33 -24.5t15 -25t4.5 -16.5q0 -11 -9.5 -25.5t-27.5 -14.5q-8 0 -28 21.5t-42 21.5q-87 0 -87 -149q0 -70 16 -128.5t39.5 -98t46.5 -75t39 -77.5t16 -89q0 -101 -65 -153t-172 -52q-61 0 -95.5 33t-34.5 70q0 19 10 31t27 12q15 0 24 -10.5
t12.5 -23.5t14.5 -23.5t30 -10.5q33 0 45 19.5t12 60.5q0 35 -35 103t-70 148.5t-35 146.5q0 83 21 147.5t50.5 99.5t68.5 57t68.5 28.5t56.5 6.5zM349 1044q81 -117 81 -143q0 -19 -25 -21h-2q-13 0 -36 24t-54.5 64t-42.5 52q-43 -38 -93 -109q-20 -29 -42 -29t-22 24
q0 32 22 64q80 118 144 118q39 0 70 -44z" />
    <glyph glyph-name="scircumflex" unicode="&#x15d;" horiz-adv-x="497" 
d="M229 -25q0 26 -17 67q-49 -51 -49 -108q0 -20 9 -33.5t21 -13.5q14 0 25 22t11 66zM210 552q71 0 71 -24q0 -25 -26 -25q-1 0 -9 1t-15 1q-68 0 -68 -68q0 -33 16.5 -69.5t57 -100t53.5 -86.5q22 11 78 38t82.5 41.5t59.5 39t48 48.5q13 20 23 20q6 0 12 -4t6 -11
q0 -17 -25 -63q-13 -22 -43 -46t-58 -40t-77.5 -42t-74.5 -41q31 -71 31 -126q0 -59 -16.5 -100.5t-42 -59.5t-46.5 -25t-40 -7q-24 0 -39.5 3.5t-35.5 16t-30.5 44t-10.5 80.5q0 92 86 163q-14 24 -49 77t-54 85t-36.5 74t-17.5 74q0 132 190 132zM253 746q81 -117 81 -143
q0 -19 -25 -21h-2q-13 0 -36 24t-54.5 64t-42.5 52q-43 -38 -93 -109q-20 -29 -42 -29t-22 24q0 32 22 64q80 118 144 118q39 0 70 -44z" />
    <glyph glyph-name="Scedilla" unicode="&#x15e;" horiz-adv-x="504" 
d="M260 -121q0 -2 0.5 -6t0.5 -5q0 -38 -28 -60t-76 -22q-20 0 -34 9t-14 22q0 20 33 20q4 0 10 -1h5q12 0 23 10.5t11 24.5q-2 17 -10 25t-17 8t-16 4.5t-7 15.5q0 16 15 29q-57 3 -89 35t-32 68q0 19 10 31t27 12q15 0 24 -10.5t12.5 -23.5t14.5 -23.5t30 -10.5
q33 0 45 19.5t12 60.5q0 35 -35 103t-70 148.5t-35 146.5q0 83 21 147.5t50.5 99.5t68.5 57t68.5 28.5t56.5 6.5q29 0 51.5 -10t33 -24.5t15 -25t4.5 -16.5q0 -11 -9.5 -25.5t-27.5 -14.5q-8 0 -28 21.5t-42 21.5q-87 0 -87 -149q0 -70 16 -128.5t39.5 -98t46.5 -75
t39 -77.5t16 -89q0 -81 -42 -130.5t-115 -65.5q-6 -12 -22 -28q33 -19 37 -55z" />
    <glyph glyph-name="scedilla" unicode="&#x15f;" horiz-adv-x="497" 
d="M229 -25q0 26 -17 67q-49 -51 -49 -108q0 -20 9 -33.5t21 -13.5q14 0 25 22t11 66zM256 -262q0 -2 0.5 -6t0.5 -5q0 -38 -28 -60t-76 -22q-20 0 -34 9t-14 22q0 20 33 20h10l5 -1q12 0 23 10.5t11 24.5q-2 17 -10 25t-17 8t-16 4.5t-7 15.5q0 14 14 28q-60 24 -60 136
q0 92 86 163q-14 24 -49 77t-54 85t-36.5 74t-17.5 74q0 132 190 132q71 0 71 -24q0 -25 -26 -25q-1 0 -9 1t-15 1q-68 0 -68 -68q0 -33 16.5 -69.5t57 -100t53.5 -86.5q22 11 78 38t82.5 41.5t59.5 39t48 48.5q13 20 23 20q6 0 12 -4t6 -11q0 -17 -25 -63q-13 -22 -43 -46
t-58 -40t-77.5 -42t-74.5 -41q31 -71 31 -126q0 -94 -37 -137t-84 -52l-12 -13q33 -19 37 -55z" />
    <glyph glyph-name="Scaron" unicode="&#x160;" horiz-adv-x="504" 
d="M335 848q29 0 51.5 -10t33 -24.5t15 -25t4.5 -16.5q0 -11 -9.5 -25.5t-27.5 -14.5q-8 0 -28 21.5t-42 21.5q-87 0 -87 -149q0 -70 16 -128.5t39.5 -98t46.5 -75t39 -77.5t16 -89q0 -101 -65 -153t-172 -52q-61 0 -95.5 33t-34.5 70q0 19 10 31t27 12q15 0 24 -10.5
t12.5 -23.5t14.5 -23.5t30 -10.5q33 0 45 19.5t12 60.5q0 35 -35 103t-70 148.5t-35 146.5q0 83 21 147.5t50.5 99.5t68.5 57t68.5 28.5t56.5 6.5zM199 941q-81 116 -81 143q0 15 25 20q14 0 37 -23t55.5 -64t42.5 -52q47 42 93 108q22 30 42 30q22 0 22 -24q0 -30 -23 -64
q-80 -118 -143 -118q-39 0 -70 44z" />
    <glyph glyph-name="scaron" unicode="&#x161;" horiz-adv-x="497" 
d="M102 643q-81 116 -81 143q0 15 25 20q14 0 37 -23t55.5 -64t42.5 -52q47 42 93 108q22 30 42 30q22 0 22 -24q0 -30 -23 -64q-80 -118 -143 -118q-39 0 -70 44zM229 -25q0 26 -17 67q-49 -51 -49 -108q0 -20 9 -33.5t21 -13.5q14 0 25 22t11 66zM210 552q71 0 71 -24
q0 -25 -26 -25q-1 0 -9 1t-15 1q-68 0 -68 -68q0 -33 16.5 -69.5t57 -100t53.5 -86.5q22 11 78 38t82.5 41.5t59.5 39t48 48.5q13 20 23 20q6 0 12 -4t6 -11q0 -17 -25 -63q-13 -22 -43 -46t-58 -40t-77.5 -42t-74.5 -41q31 -71 31 -126q0 -59 -16.5 -100.5t-42 -59.5
t-46.5 -25t-40 -7q-24 0 -39.5 3.5t-35.5 16t-30.5 44t-10.5 80.5q0 92 86 163q-14 24 -49 77t-54 85t-36.5 74t-17.5 74q0 132 190 132z" />
    <glyph glyph-name="Tcommaaccent" unicode="&#x162;" horiz-adv-x="732" 
d="M11 702v5q90 47 264.5 102t334.5 55q133 0 133 -83v-1q0 -37 -129 -37h-1q-38 0 -196 -29q26 -46 48 -307.5t31 -306.5q8 -40 8 -74q0 -89 -77 -89q-88 0 -106 233q-9 120 -9 272q0 104 6 254q-206 -37 -253 -37h-2q-22 0 -37 10.5t-15 32.5zM426 -125q-44 0 -44 -102
q0 -32 -14 -59.5t-27.5 -45t-13.5 -24.5q0 -10 14 -15.5t24 -5.5q43 0 84.5 55.5t41.5 121.5q0 75 -65 75z" />
    <glyph glyph-name="tcommaaccent" unicode="&#x163;" horiz-adv-x="336" 
d="M373 658q29 0 30 -25q0 -10 -4.5 -19t-9.5 -9q-65 -18 -186 -23q-10 -130 -15 -383t-8 -309q-3 -47 -28.5 -78t-59.5 -31q-28 0 -50 22q-15 15 -15 196q0 260 24 584q-107 7 -149 30q-12 7 -16 19q-2 4 -2 9q0 7 7 24.5t11 17.5q2 1 7 1q4 0 20 -2q68 -15 128 -24
q21 250 43 250q26 12 55 12q76 0 76 -104q0 -28 -8 -74q-7 -32 -14 -95h5q44 0 86 3q12 1 29.5 3t28.5 3.5t15 1.5zM93 -286q-44 0 -44 -102q0 -32 -13.5 -59.5t-27.5 -45t-14 -24.5q0 -10 14 -15.5t24 -5.5q43 0 84.5 55.5t41.5 121.5q0 75 -65 75z" />
    <glyph glyph-name="Tcaron" unicode="&#x164;" horiz-adv-x="732" 
d="M11 702v5q90 47 264.5 102t334.5 55q133 0 133 -83v-1q0 -37 -129 -37h-1q-38 0 -196 -29q26 -46 48 -307.5t31 -306.5q8 -40 8 -74q0 -89 -77 -89q-88 0 -106 233q-9 120 -9 272q0 104 6 254q-206 -37 -253 -37h-2q-22 0 -37 10.5t-15 32.5zM296 946q-81 116 -81 143
q0 15 25 20q14 0 37 -23t55.5 -64t42.5 -52q47 42 93 108q22 30 42 30q22 0 22 -24q0 -30 -23 -64q-80 -118 -143 -118q-39 0 -70 44z" />
    <glyph glyph-name="tcaron" unicode="&#x165;" horiz-adv-x="336" 
d="M373 658q29 0 30 -25q0 -10 -4.5 -19t-9.5 -9q-65 -18 -186 -23q-10 -130 -15 -383t-8 -309q-3 -47 -28.5 -78t-59.5 -31q-28 0 -50 22q-15 15 -15 196q0 260 24 584q-107 7 -149 30q-12 7 -16 19q-2 4 -2 9q0 7 7 24.5t11 17.5q2 1 7 1q4 0 20 -2q68 -15 128 -24
q21 250 43 250q26 12 55 12q76 0 76 -104q0 -28 -8 -74q-7 -32 -14 -95h5q44 0 86 3q12 1 29.5 3t28.5 3.5t15 1.5zM355 933q33 0 33 -84q0 -41 -27 -71.5t-50 -30.5q-16 0 -16 18q0 12 7.5 21t15.5 30t8 61q0 56 29 56z" />
    <glyph glyph-name="Tbar" unicode="&#x166;" horiz-adv-x="732" 
d="M11 702v5q90 47 264.5 102t334.5 55q133 0 133 -83v-1q0 -37 -129 -37h-1q-38 0 -196 -29q27 -47 48 -301q33 -3 54 -11q11 0 11 -25q-1 -20 -16 -20q-31 0 -45 -1q16 -205 27 -256q8 -40 8 -74q0 -89 -77 -89q-88 0 -106 233q-7 88 -9 177q-7 0 -20 -1.5t-17 -1.5h-5
q-28 0 -28 22q2 26 17 36.5t53 11.5v28q0 104 6 254q-206 -37 -253 -37h-2q-22 0 -37 10.5t-15 32.5z" />
    <glyph glyph-name="tbar" unicode="&#x167;" horiz-adv-x="336" 
d="M373 658q29 0 30 -25q0 -10 -4.5 -19t-9.5 -9q-65 -18 -186 -23q-9 -108 -12 -235h49q15 0 16 -20q0 -11 -3 -17.5t-5 -7.5h-3q-16 -8 -56 -11q-7 -374 -9 -401q-3 -47 -28.5 -78t-59.5 -31q-28 0 -50 22q-15 15 -15 196q0 144 7 291q-35 2 -49.5 12.5t-16.5 35.5
q0 22 28 22l41 -3q8 157 14 226q-107 7 -149 30q-12 7 -16 19q-2 4 -2 9q0 7 7 24.5t11 17.5q2 1 7 1q4 0 20 -2q68 -15 128 -24q21 250 43 250q26 12 55 12q76 0 76 -104q0 -28 -8 -74q-7 -32 -14 -95h5q44 0 86 3q12 1 29.5 3t28.5 3.5t15 1.5z" />
    <glyph glyph-name="Utilde" unicode="&#x168;" horiz-adv-x="711" 
d="M594 -12q-12 -12 -25 -12q-25 0 -71 41q-22 19 -22 140v47q-91 -221 -258 -221q-171 0 -171 311q0 89 14 195.5t28 168.5l14 61q2 12 6.5 29t23 45.5t42.5 28.5q41 0 82 -9t41 -25q0 -74 -27.5 -306t-27.5 -308q0 -85 24 -85h3q60 13 120.5 106t99.5 281q5 87 5 143
q0 53 -4 82q-2 12 -2 34q0 46 18.5 68t47.5 22q108 0 108 -224q0 -5 -0.5 -16t-0.5 -17q-6 -202 -29 -383t-39 -197zM507 943q12 0 12 -18q0 -21 -17 -41t-51 -20q-30 0 -80 19t-70 19q-9 0 -21.5 -9t-16.5 -9q-13 0 -13 15q0 29 25 48.5t51 19.5q24 0 68 -21.5t62 -21.5
q7 0 15 2t14 5l11 5.5t8 4.5z" />
    <glyph glyph-name="utilde" unicode="&#x169;" horiz-adv-x="645" 
d="M194 360q0 -40 -13.5 -131t-13.5 -111t7 -20q2 0 3 1q42 22 88.5 104t80 158t42.5 81q22 13 51 13q61 0 61 -78q0 -34 -4 -110t-4 -106q0 -70 17 -70q25 0 65 61.5t79 142.5q35 75 56 75q14 0 14 -24q0 -45 -24 -105q-35 -93 -105 -188.5t-125 -95.5q-88 0 -88 150
q0 31 3.5 65t7.5 52l4 19q-2 -6 -5 -16t-15 -38.5t-26 -54.5t-38 -57.5t-50.5 -54.5t-64 -38.5t-78.5 -15.5q-102 0 -102 200q0 78 14 160t24 99q11 18 43 18q35 0 65.5 -23t30.5 -62zM397 600q12 0 12 -18q0 -21 -17 -41t-51 -20q-30 0 -80 19t-70 19q-9 0 -21.5 -9
t-16.5 -9q-13 0 -13 15q0 29 25 48.5t51 19.5q24 0 68 -21.5t62 -21.5q7 0 15 2t14 4.5t11 5.5t8 5z" />
    <glyph glyph-name="Umacron" unicode="&#x16a;" horiz-adv-x="711" 
d="M594 -12q-12 -12 -25 -12q-25 0 -71 41q-22 19 -22 140v47q-91 -221 -258 -221q-171 0 -171 311q0 89 14 195.5t28 168.5l14 61q2 12 6.5 29t23 45.5t42.5 28.5q41 0 82 -9t41 -25q0 -74 -27.5 -306t-27.5 -308q0 -85 24 -85h3q60 13 120.5 106t99.5 281q5 87 5 143
q0 53 -4 82q-2 12 -2 34q0 46 18.5 68t47.5 22q108 0 108 -224q0 -5 -0.5 -16t-0.5 -17q-6 -202 -29 -383t-39 -197zM514 947q11 0 11 -25q-1 -20 -16 -20q-50 0 -99.5 -2.5t-93.5 -6.5t-46 -4h-5q-28 0 -28 22q2 28 20.5 38t66.5 10q7 0 32 0.5t40 0.5q90 0 118 -13z" />
    <glyph glyph-name="umacron" unicode="&#x16b;" horiz-adv-x="645" 
d="M194 360q0 -40 -13.5 -131t-13.5 -111t7 -20q2 0 3 1q42 22 88.5 104t80 158t42.5 81q22 13 51 13q61 0 61 -78q0 -34 -4 -110t-4 -106q0 -70 17 -70q25 0 65 61.5t79 142.5q35 75 56 75q14 0 14 -24q0 -45 -24 -105q-35 -93 -105 -188.5t-125 -95.5q-88 0 -88 150
q0 31 3.5 65t7.5 52l4 19q-2 -6 -5 -16t-15 -38.5t-26 -54.5t-38 -57.5t-50.5 -54.5t-64 -38.5t-78.5 -15.5q-102 0 -102 200q0 78 14 160t24 99q11 18 43 18q35 0 65.5 -23t30.5 -62zM413 588q11 0 11 -25q-1 -20 -16 -20q-50 0 -99.5 -2.5t-93.5 -6.5t-46 -4h-5
q-28 0 -28 22q2 28 20.5 38t66.5 10q7 0 32 0.5t40 0.5q90 0 118 -13z" />
    <glyph glyph-name="Ubreve" unicode="&#x16c;" horiz-adv-x="711" 
d="M594 -12q-12 -12 -25 -12q-25 0 -71 41q-22 19 -22 140v47q-91 -221 -258 -221q-171 0 -171 311q0 89 14 195.5t28 168.5l14 61q2 12 6.5 29t23 45.5t42.5 28.5q41 0 82 -9t41 -25q0 -74 -27.5 -306t-27.5 -308q0 -85 24 -85h3q60 13 120.5 106t99.5 281q5 87 5 143
q0 53 -4 82q-2 12 -2 34q0 46 18.5 68t47.5 22q108 0 108 -224q0 -5 -0.5 -16t-0.5 -17q-6 -202 -29 -383t-39 -197zM521 1002q-14 -73 -53.5 -112t-86.5 -39q-50 0 -86 42.5t-36 118.5q0 24 22 24q10 0 29 -39q1 -3 2 -4q36 -81 79 -81q24 0 44.5 26.5t31.5 69.5
q7 23 30 23q24 0 24 -29z" />
    <glyph glyph-name="ubreve" unicode="&#x16d;" horiz-adv-x="645" 
d="M194 360q0 -40 -13.5 -131t-13.5 -111t7 -20q2 0 3 1q42 22 88.5 104t80 158t42.5 81q22 13 51 13q61 0 61 -78q0 -34 -4 -110t-4 -106q0 -70 17 -70q25 0 65 61.5t79 142.5q35 75 56 75q14 0 14 -24q0 -45 -24 -105q-35 -93 -105 -188.5t-125 -95.5q-88 0 -88 150
q0 31 3.5 65t7.5 52l4 19q-2 -6 -5 -16t-15 -38.5t-26 -54.5t-38 -57.5t-50.5 -54.5t-64 -38.5t-78.5 -15.5q-102 0 -102 200q0 78 14 160t24 99q11 18 43 18q35 0 65.5 -23t30.5 -62zM416 661q-14 -73 -53.5 -112t-86.5 -39q-50 0 -86 42.5t-36 118.5q0 24 22 24
q10 0 29 -39q1 -3 2 -4q36 -81 79 -81q24 0 44.5 26.5t31.5 69.5q7 23 30 23q24 0 24 -29z" />
    <glyph glyph-name="Uring" unicode="&#x16e;" horiz-adv-x="711" 
d="M594 -12q-12 -12 -25 -12q-25 0 -71 41q-22 19 -22 140v47q-91 -221 -258 -221q-171 0 -171 311q0 89 14 195.5t28 168.5l14 61q2 12 6.5 29t23 45.5t42.5 28.5q41 0 82 -9t41 -25q0 -74 -27.5 -306t-27.5 -308q0 -85 24 -85h3q60 13 120.5 106t99.5 281q5 87 5 143
q0 53 -4 82q-2 12 -2 34q0 46 18.5 68t47.5 22q108 0 108 -224q0 -5 -0.5 -16t-0.5 -17q-6 -202 -29 -383t-39 -197zM398 1013q-18 0 -18 -46q0 -45 13 -45q9 0 15 17.5t6 38.5q0 35 -16 35zM498 975q0 -46 -33.5 -84.5t-80.5 -38.5q-43 0 -71 43.5t-28 92.5q0 34 25 56.5
t52 30t52 7.5q36 0 60 -28t24 -79z" />
    <glyph glyph-name="uring" unicode="&#x16f;" horiz-adv-x="645" 
d="M194 360q0 -40 -13.5 -131t-13.5 -111t7 -20q2 0 3 1q42 22 88.5 104t80 158t42.5 81q22 13 51 13q61 0 61 -78q0 -34 -4 -110t-4 -106q0 -70 17 -70q25 0 65 61.5t79 142.5q35 75 56 75q14 0 14 -24q0 -45 -24 -105q-35 -93 -105 -188.5t-125 -95.5q-88 0 -88 150
q0 31 3.5 65t7.5 52l4 19q-2 -6 -5 -16t-15 -38.5t-26 -54.5t-38 -57.5t-50.5 -54.5t-64 -38.5t-78.5 -15.5q-102 0 -102 200q0 78 14 160t24 99q11 18 43 18q35 0 65.5 -23t30.5 -62zM279 688q-18 0 -18 -46q0 -45 13 -45q9 0 15 17.5t6 38.5q0 35 -16 35zM379 650
q0 -46 -33.5 -84.5t-80.5 -38.5q-43 0 -71 43.5t-28 92.5q0 34 25 56.5t52 30t52 7.5q36 0 60 -28t24 -79z" />
    <glyph glyph-name="Uhungarumlaut" unicode="&#x170;" horiz-adv-x="711" 
d="M594 -12q-12 -12 -25 -12q-25 0 -71 41q-22 19 -22 140v47q-91 -221 -258 -221q-171 0 -171 311q0 89 14 195.5t28 168.5l14 61q2 12 6.5 29t23 45.5t42.5 28.5q41 0 82 -9t41 -25q0 -74 -27.5 -306t-27.5 -308q0 -85 24 -85h3q60 13 120.5 106t99.5 281q5 87 5 143
q0 53 -4 82q-2 12 -2 34q0 46 18.5 68t47.5 22q108 0 108 -224q0 -5 -0.5 -16t-0.5 -17q-6 -202 -29 -383t-39 -197zM493 1050q14 0 23 -12t9 -28q0 -39 -30 -93.5t-67 -54.5q-21 0 -38 24q2 3 15 17t25.5 33t18.5 42q20 72 44 72zM367 1050q14 0 23 -12t9 -28
q0 -39 -30 -93.5t-67 -54.5q-21 0 -38 24q2 3 15 17t25.5 33t18.5 42q20 72 44 72z" />
    <glyph glyph-name="uhungarumlaut" unicode="&#x171;" horiz-adv-x="645" 
d="M194 360q0 -40 -13.5 -131t-13.5 -111t7 -20q2 0 3 1q42 22 88.5 104t80 158t42.5 81q22 13 51 13q61 0 61 -78q0 -34 -4 -110t-4 -106q0 -70 17 -70q25 0 65 61.5t79 142.5q35 75 56 75q14 0 14 -24q0 -45 -24 -105q-35 -93 -105 -188.5t-125 -95.5q-88 0 -88 150
q0 31 3.5 65t7.5 52l4 19q-2 -6 -5 -16t-15 -38.5t-26 -54.5t-38 -57.5t-50.5 -54.5t-64 -38.5t-78.5 -15.5q-102 0 -102 200q0 78 14 160t24 99q11 18 43 18q35 0 65.5 -23t30.5 -62zM401 718q14 0 23 -12t9 -28q0 -39 -30 -93.5t-67 -54.5q-21 0 -38 24q2 3 15 17t25.5 33
t18.5 42q20 72 44 72zM275 718q14 0 23 -12t9 -28q0 -39 -30 -93.5t-67 -54.5q-21 0 -38 24q2 3 15 17t25.5 33t18.5 42q20 72 44 72z" />
    <glyph glyph-name="Uogonek" unicode="&#x172;" horiz-adv-x="711" 
d="M594 -12q-10 -7 -11 -8l-15 -12q-24 -24 -24 -43t21 -32t42 -13q5 0 13.5 3t12.5 3q12 0 12 -13q0 -16 -25 -31t-56 -15q-37 0 -65 25t-28 62q0 51 48 85l-21 18q-22 19 -22 140v47q-91 -221 -258 -221q-171 0 -171 311q0 89 14 195.5t28 168.5l14 61q2 12 6.5 29
t23 45.5t42.5 28.5q41 0 82 -9t41 -25q0 -74 -27.5 -306t-27.5 -308q0 -85 24 -85h3q60 13 120.5 106t99.5 281q5 87 5 143q0 53 -4 82q-2 12 -2 34q0 46 18.5 68t47.5 22q108 0 108 -224q0 -5 -0.5 -16t-0.5 -17q-6 -202 -29 -383t-39 -197z" />
    <glyph glyph-name="uogonek" unicode="&#x173;" horiz-adv-x="645" 
d="M194 360q0 -40 -13.5 -131t-13.5 -111t7 -20q2 0 3 1q42 22 88.5 104t80 158t42.5 81q22 13 51 13q61 0 61 -78q0 -34 -4 -110t-4 -106q0 -70 17 -70q25 0 65 61.5t79 142.5q35 75 56 75q14 0 14 -24q0 -45 -24 -105q-28 -74 -82.5 -156.5t-104.5 -112.5l-8 -7
q-24 -24 -24 -43t21 -32t42 -13q5 0 13.5 3t12.5 3q12 0 12 -13q0 -16 -25 -31t-56 -15q-37 0 -65 25t-28 62q0 28 20 58q-46 31 -46 138q0 71 14 134q-4 -15 -13 -38.5t-33 -67.5t-53 -78.5t-76.5 -61.5t-100.5 -27q-102 0 -102 200q0 78 14 160t24 99q11 18 43 18
q35 0 65.5 -23t30.5 -62z" />
    <glyph glyph-name="Wcircumflex" unicode="&#x174;" horiz-adv-x="789" 
d="M84 769q0 28 29 33q60 10 106 10q20 0 34.5 -9.5t21.5 -22.5t11 -34.5t5 -37t1 -38.5q0 -3 -20.5 -183t-20.5 -264q0 -83 19 -83q16 0 34.5 50.5t34.5 130t26 136t18 109.5q4 26 27 44q29 21 56 21q17 0 32 -8q19 -10 29.5 -128t21.5 -229.5t29 -111.5q8 0 30 94.5
t41.5 223t21.5 206.5q1 25 5.5 41t13.5 22.5t15 8t16 1.5q18 0 32.5 -16.5t14.5 -55.5q0 -104 -19 -243.5t-58 -255.5t-84 -116q-35 0 -64 16t-47.5 38.5t-33 55.5t-22 60t-12 58.5t-5.5 43.5t-2 23q-1 -16 -3 -31.5t-9 -55.5t-15.5 -73t-24.5 -73.5t-35.5 -68.5t-49 -47.5
t-63.5 -19.5q-158 0 -158 386q0 67 4 143.5t10 149.5t7 100zM561 925q81 -117 81 -143q0 -19 -25 -21h-2q-13 0 -36 24t-54.5 64t-42.5 52q-43 -38 -93 -109q-20 -29 -42 -29t-22 24q0 32 22 64q80 118 144 118q39 0 70 -44z" />
    <glyph glyph-name="wcircumflex" unicode="&#x175;" horiz-adv-x="778" 
d="M68 495q9 28 27 42t40 14q24 0 41.5 -15.5t17.5 -40.5q0 -415 44 -415h1q18 0 46 68t58 164.5t31 98.5q5 12 13 18q33 23 58 23q26 0 26 -33q0 -25 -1.5 -62.5t-1.5 -51.5q0 -252 71 -252q22 0 36.5 42.5t20 125t7 146t1.5 161.5q0 83 22 83q60 0 60 -103v-69.5t-1 -70.5
t-3 -73.5t-5.5 -69t-9.5 -67t-13.5 -57.5t-19 -51.5t-25.5 -37.5t-33 -26t-41 -8q-117 0 -153 184q-20 -66 -44.5 -114.5t-44.5 -71.5t-37.5 -37t-27.5 -16l-9 -2q-55 0 -94.5 23.5t-60.5 65t-30 89.5t-9 106q0 148 43 290zM466 731q81 -117 81 -143q0 -19 -25 -21h-2
q-13 0 -36 24t-54.5 64t-42.5 52q-43 -38 -93 -109q-20 -29 -42 -29t-22 24q0 32 22 64q80 118 144 118q39 0 70 -44z" />
    <glyph glyph-name="Ycircumflex" unicode="&#x176;" horiz-adv-x="545" 
d="M51 786v14q0 26 38 26q17 0 25 -7.5t13 -29.5q53 -237 100 -401q28 158 70 283q54 161 146 161q73 0 73 -50q0 -25 -17 -52q-25 -43 -75 -210.5t-75 -217.5q3 -12 3 -28q0 -11 -3.5 -55.5t-3.5 -79.5q0 -80 -28.5 -125t-112.5 -45q-47 0 -47 167q0 61 6 137
q-52 52 -82 226q-30 178 -30 287zM338 1035q81 -117 81 -143q0 -19 -25 -21h-2q-13 0 -36 24t-54.5 64t-42.5 52q-43 -38 -93 -109q-20 -29 -42 -29t-22 24q0 32 22 64q80 118 144 118q39 0 70 -44z" />
    <glyph glyph-name="ycircumflex" unicode="&#x177;" horiz-adv-x="525" 
d="M281 -288q37 44 39 151q-42 -51 -42 -122zM121 514q43 0 43 -101q0 -51 -14 -165.5t-14 -147.5q0 -48 17 -48q29 0 57.5 90t42.5 180l14 89q3 40 25 60.5t51 20.5q25 0 43.5 -14t18.5 -35q0 -139 19 -346q118 154 152 239q9 25 27 25q17 0 17 -21l-3 -21
q-57 -180 -184 -329l12 -142q1 -8 1 -24q0 -85 -43.5 -133.5t-108.5 -48.5q-26 0 -44 11.5t-24.5 30t-9 31t-2.5 23.5q12 88 102 217q-4 47 -13 98.5t-15 78.5l-7 28q-18 -90 -62 -143.5t-91 -53.5q-43 0 -71.5 47.5t-28.5 138.5q0 365 93 365zM340 731q81 -117 81 -143
q0 -19 -25 -21h-2q-13 0 -36 24t-54.5 64t-42.5 52q-43 -38 -93 -109q-20 -29 -42 -29t-22 24q0 32 22 64q80 118 144 118q39 0 70 -44z" />
    <glyph glyph-name="Ydieresis" unicode="&#x178;" horiz-adv-x="545" 
d="M51 786v14q0 26 38 26q17 0 25 -7.5t13 -29.5q53 -237 100 -401q28 158 70 283q54 161 146 161q73 0 73 -50q0 -25 -17 -52q-25 -43 -75 -210.5t-75 -217.5q3 -12 3 -28q0 -11 -3.5 -55.5t-3.5 -79.5q0 -80 -28.5 -125t-112.5 -45q-47 0 -47 167q0 61 6 137
q-52 52 -82 226q-30 178 -30 287zM105 910q0 32 25.5 56t58.5 24q43 0 43 -42q0 -37 -20.5 -56t-47.5 -19q-59 0 -59 37zM408 991q21 0 43 -14t22 -35q0 -24 -25.5 -44.5t-57.5 -20.5q-25 0 -38 12t-13 31q0 30 19 50.5t50 20.5z" />
    <glyph glyph-name="Zacute" unicode="&#x179;" horiz-adv-x="574" 
d="M458 796q5 0 13 -2.5t26 -21.5t29 -52q1 -3 1 -10q0 -38 -57.5 -140t-140.5 -234.5t-113 -192.5q89 16 147 16q32 0 56.5 -6t38 -14.5t24 -21t14 -21.5t6.5 -20t4 -12q1 -3 1 -9q0 -13 -10 -23.5t-31 -10.5q-10 0 -27.5 2t-26.5 2q-35 0 -130 -10t-134 -10q-24 0 -41 1
q-31 0 -52 31t-21 62q0 76 78 208q102 172 267 389h-67q-235 0 -238 58q0 30 17.5 35t103.5 6q19 0 257 -2v-1q1 0 6 4zM344 1028q14 0 23 -12t9 -28q0 -39 -30 -93.5t-67 -54.5q-21 0 -38 24q2 3 15 17t25.5 33t18.5 42q20 72 44 72z" />
    <glyph glyph-name="zacute" unicode="&#x17a;" horiz-adv-x="581" 
d="M138 142q20 20 47 50q-47 -26 -47 -50zM190 -238q-4 -12 -4 -16q0 -17 17 -17q29 0 63.5 42t45.5 116v1q-55 -41 -82 -67.5t-40 -58.5zM-21 205q2 9 10 34.5t33 75t57 91.5t87.5 74t119.5 32q6 0 16.5 -0.5t36.5 -7t46 -17.5t36.5 -35.5t16.5 -57.5q0 -71 -62 -162
q62 -39 77 -112q123 97 173 169q21 32 38 32q10 0 17.5 -9t7.5 -19q0 -25 -23 -57q-98 -129 -209 -229q-1 -47 -6.5 -88.5t-23 -94.5t-44.5 -90.5t-77 -63.5t-117 -26q-3 1 -8.5 2.5t-19.5 10t-24.5 20.5t-19.5 36t-9 55v2q1 56 57.5 115t163.5 140q11 110 11 116
q0 22 -7 37q-100 -112 -192 -112h-9q-10 0 -19 2t-20.5 8.5t-18.5 22t-7 38.5q0 33 54.5 79t125.5 49q72 93 72 136q0 38 -53 38q-41 0 -80 -24.5t-71.5 -68.5t-52.5 -77t-42 -78q-3 -17 -24 -17q-20 0 -20 18q0 6 3 13zM326 746q14 0 23 -12t9 -28q0 -39 -30 -93.5
t-67 -54.5q-21 0 -38 24q2 3 15 17t25.5 33t18.5 42q20 72 44 72z" />
    <glyph glyph-name="Zdotaccent" unicode="&#x17b;" horiz-adv-x="574" 
d="M458 796q5 0 13 -2.5t26 -21.5t29 -52q1 -3 1 -10q0 -38 -57.5 -140t-140.5 -234.5t-113 -192.5q89 16 147 16q32 0 56.5 -6t38 -14.5t24 -21t14 -21.5t6.5 -20t4 -12q1 -3 1 -9q0 -13 -10 -23.5t-31 -10.5q-10 0 -27.5 2t-26.5 2q-35 0 -130 -10t-134 -10q-24 0 -41 1
q-31 0 -52 31t-21 62q0 76 78 208q102 172 267 389h-67q-235 0 -238 58q0 30 17.5 35t103.5 6q19 0 257 -2v-1q1 0 6 4zM334 956q11 0 17 -9t6 -21q0 -27 -22 -54.5t-44 -27.5q-57 0 -57 41q0 16 37.5 43.5t62.5 27.5z" />
    <glyph glyph-name="zdotaccent" unicode="&#x17c;" horiz-adv-x="581" 
d="M138 142q20 20 47 50q-47 -26 -47 -50zM190 -238q-4 -12 -4 -16q0 -17 17 -17q29 0 63.5 42t45.5 116v1q-55 -41 -82 -67.5t-40 -58.5zM-21 205q2 9 10 34.5t33 75t57 91.5t87.5 74t119.5 32q6 0 16.5 -0.5t36.5 -7t46 -17.5t36.5 -35.5t16.5 -57.5q0 -71 -62 -162
q62 -39 77 -112q123 97 173 169q21 32 38 32q10 0 17.5 -9t7.5 -19q0 -25 -23 -57q-98 -129 -209 -229q-1 -47 -6.5 -88.5t-23 -94.5t-44.5 -90.5t-77 -63.5t-117 -26q-3 1 -8.5 2.5t-19.5 10t-24.5 20.5t-19.5 36t-9 55v2q1 56 57.5 115t163.5 140q11 110 11 116
q0 22 -7 37q-100 -112 -192 -112h-9q-10 0 -19 2t-20.5 8.5t-18.5 22t-7 38.5q0 33 54.5 79t125.5 49q72 93 72 136q0 38 -53 38q-41 0 -80 -24.5t-71.5 -68.5t-52.5 -77t-42 -78q-3 -17 -24 -17q-20 0 -20 18q0 6 3 13zM312 682q11 0 17 -9t6 -21q0 -27 -22 -54.5
t-44 -27.5q-57 0 -57 41q0 16 37.5 43.5t62.5 27.5z" />
    <glyph glyph-name="Zcaron" unicode="&#x17d;" horiz-adv-x="574" 
d="M458 796q5 0 13 -2.5t26 -21.5t29 -52q1 -3 1 -10q0 -38 -57.5 -140t-140.5 -234.5t-113 -192.5q89 16 147 16q32 0 56.5 -6t38 -14.5t24 -21t14 -21.5t6.5 -20t4 -12q1 -3 1 -9q0 -13 -10 -23.5t-31 -10.5q-10 0 -27.5 2t-26.5 2q-35 0 -130 -10t-134 -10q-24 0 -41 1
q-31 0 -52 31t-21 62q0 76 78 208q102 172 267 389h-67q-235 0 -238 58q0 30 17.5 35t103.5 6q19 0 257 -2v-1q1 0 6 4zM238 901q-81 116 -81 143q0 15 25 20q14 0 37 -23t55.5 -64t42.5 -52q47 42 93 108q22 30 42 30q22 0 22 -24q0 -30 -23 -64q-80 -118 -143 -118
q-39 0 -70 44z" />
    <glyph glyph-name="zcaron" unicode="&#x17e;" horiz-adv-x="581" 
d="M138 142q20 20 47 50q-47 -26 -47 -50zM190 -238q-4 -12 -4 -16q0 -17 17 -17q29 0 63.5 42t45.5 116v1q-55 -41 -82 -67.5t-40 -58.5zM-21 205q2 9 10 34.5t33 75t57 91.5t87.5 74t119.5 32q6 0 16.5 -0.5t36.5 -7t46 -17.5t36.5 -35.5t16.5 -57.5q0 -71 -62 -162
q62 -39 77 -112q123 97 173 169q21 32 38 32q10 0 17.5 -9t7.5 -19q0 -25 -23 -57q-98 -129 -209 -229q-1 -47 -6.5 -88.5t-23 -94.5t-44.5 -90.5t-77 -63.5t-117 -26q-3 1 -8.5 2.5t-19.5 10t-24.5 20.5t-19.5 36t-9 55v2q1 56 57.5 115t163.5 140q11 110 11 116
q0 22 -7 37q-100 -112 -192 -112h-9q-10 0 -19 2t-20.5 8.5t-18.5 22t-7 38.5q0 33 54.5 79t125.5 49q72 93 72 136q0 38 -53 38q-41 0 -80 -24.5t-71.5 -68.5t-52.5 -77t-42 -78q-3 -17 -24 -17q-20 0 -20 18q0 6 3 13zM204 623q-81 116 -81 143q0 15 25 20q14 0 37 -23
t55.5 -64t42.5 -52q47 42 93 108q22 30 42 30q22 0 22 -24q0 -30 -23 -64q-80 -118 -143 -118q-39 0 -70 44z" />
    <glyph glyph-name="AEacute" unicode="&#x1fc;" horiz-adv-x="795" 
d="M283 410q3 41 3 76t-3 73.5t-5.5 57.5t-8.5 57.5t-7 41.5q-51 -184 -82 -306h103zM647 342q-56 -19 -215 -26q18 -257 135 -257q33 0 55.5 7t30.5 15t20.5 15t29.5 7q11 0 26.5 -10t15.5 -19q0 -99 -156 -99q-148 0 -226 91t-83 246h-124q-15 -62 -60 -268
q-8 -35 -13.5 -42.5t-26.5 -7.5q-36 0 -36 42v7q6 155 60 456q24 135 51.5 210.5t51 96.5t55.5 21q28 -1 36 -4q8 3 51 3q109 0 166.5 -4.5t206.5 -24.5q28 -4 37 -12t10 -24v-1q0 -17 -10.5 -30t-20.5 -17l-10 -4q-60 -23 -182 -23q-54 0 -84 3q-10 -146 -10 -280
q191 -2 220 -13q14 -5 14 -26q0 -24 -15 -28zM435 1061q14 0 23 -12t9 -28q0 -39 -30 -93.5t-67 -54.5q-21 0 -38 24q2 3 15 17t25.5 33t18.5 42q20 72 44 72z" />
    <glyph glyph-name="aeacute" unicode="&#x1fd;" horiz-adv-x="624" 
d="M427 424q0 23 -14 23q-18 0 -28 -20q-5 -11 -7 -25.5t-3 -36t-2 -32.5q54 13 54 91zM83 198q0 -35 11 -35q21 0 69 103.5t58 150.5q0 6 1 9q-6 -3 -15 -9.5t-33 -29t-42.5 -47t-33.5 -63.5t-15 -79zM700 336q13 0 13 -15q0 -26 -27 -85t-69.5 -123.5t-105.5 -112.5
t-125 -48q-17 0 -33 3t-39.5 17t-40.5 38t-29.5 71t-12.5 111q0 40 5 78q-39 -80 -88 -145t-75 -65q-13 0 -20 1t-18.5 7t-18 18t-11.5 36.5t-5 59.5q0 82 27.5 146t67.5 97.5t77 50.5t65 17q15 0 21 -6q2 0 5 0.5t4 0.5q22 0 46 -23q38 36 88 36q11 0 21.5 -2t27 -8.5
t26.5 -22.5t10 -40q0 -75 -37.5 -115t-81.5 -41q-4 -58 -4 -85q0 -125 39 -125q48 0 122.5 66t125.5 154q31 54 50 54zM347 746q14 0 23 -12t9 -28q0 -39 -30 -93.5t-67 -54.5q-21 0 -38 24q2 3 15 17t25.5 33t18.5 42q20 72 44 72z" />
    <glyph glyph-name="circumflex" unicode="&#x2c6;" 
d="M307 731q81 -117 81 -143q0 -19 -25 -21h-2q-13 0 -36 24t-54.5 64t-42.5 52q-43 -38 -93 -109q-20 -29 -42 -29t-22 24q0 32 22 64q80 118 144 118q39 0 70 -44z" />
    <glyph glyph-name="caron" unicode="&#x2c7;" horiz-adv-x="497" 
d="M102 643q-81 116 -81 143q0 15 25 20q14 0 37 -23t55.5 -64t42.5 -52q47 42 93 108q22 30 42 30q22 0 22 -24q0 -30 -23 -64q-80 -118 -143 -118q-39 0 -70 44z" />
    <glyph glyph-name="breve" unicode="&#x2d8;" 
d="M381 733q-14 -73 -53.5 -112t-86.5 -39q-50 0 -86 42.5t-36 118.5q0 24 22 24q10 0 29 -39q1 -3 2 -4q36 -81 79 -81q24 0 44.5 26.5t31.5 69.5q7 23 30 23q24 0 24 -29z" />
    <glyph glyph-name="dotaccent" unicode="&#x2d9;" horiz-adv-x="338" 
d="M167 638q11 0 17 -9t6 -21q0 -27 -22 -54.5t-44 -27.5q-57 0 -57 41q0 16 37.5 43.5t62.5 27.5z" />
    <glyph glyph-name="ring" unicode="&#x2da;" 
d="M268 753q-18 0 -18 -46q0 -45 13 -45q9 0 15 18t6 38q0 35 -16 35zM368 715q0 -46 -33.5 -84.5t-80.5 -38.5q-43 0 -71 43.5t-28 92.5q0 34 25 56.5t52 30t52 7.5q36 0 60 -28t24 -79z" />
    <glyph glyph-name="ogonek" unicode="&#x2db;" 
d="M363 -151q-37 0 -65 25t-28 62q0 39 34 72.5t74 33.5q7 0 13 -5t6 -12q0 -6 -4.5 -12t-9 -10t-10 -8t-6.5 -5q-24 -24 -24 -43t21 -32t42 -13q5 0 13.5 3t12.5 3q12 0 12 -13q0 -16 -25 -31t-56 -15z" />
    <glyph glyph-name="tilde" unicode="&#x2dc;" horiz-adv-x="500" 
d="M371 640q12 0 12 -18q0 -21 -17 -41t-51 -20q-30 0 -80 19t-70 19q-9 0 -21.5 -9t-16.5 -9q-13 0 -13 15q0 29 25 48.5t51 19.5q24 0 68 -21.5t62 -21.5q7 0 15 2t14 4.5t11 5.5t8 5z" />
    <glyph glyph-name="hungarumlaut" unicode="&#x2dd;" 
d="M345 746q14 0 23 -12t9 -28q0 -39 -30 -93.5t-67 -54.5q-21 0 -38 24q2 3 15 17t25.5 33t18.5 42q20 72 44 72zM219 746q14 0 23 -12t9 -28q0 -39 -30 -93.5t-67 -54.5q-21 0 -38 24q2 3 15 17t25.5 33t18.5 42q20 72 44 72z" />
    <glyph glyph-name="Wgrave" unicode="&#x1e80;" horiz-adv-x="789" 
d="M84 769q0 28 29 33q60 10 106 10q20 0 34.5 -9.5t21.5 -22.5t11 -34.5t5 -37t1 -38.5q0 -3 -20.5 -183t-20.5 -264q0 -83 19 -83q16 0 34.5 50.5t34.5 130t26 136t18 109.5q4 26 27 44q29 21 56 21q17 0 32 -8q19 -10 29.5 -128t21.5 -229.5t29 -111.5q8 0 30 94.5
t41.5 223t21.5 206.5q1 25 5.5 41t13.5 22.5t15 8t16 1.5q18 0 32.5 -16.5t14.5 -55.5q0 -104 -19 -243.5t-58 -255.5t-84 -116q-35 0 -64 16t-47.5 38.5t-33 55.5t-22 60t-12 58.5t-5.5 43.5t-2 23q-1 -16 -3 -31.5t-9 -55.5t-15.5 -73t-24.5 -73.5t-35.5 -68.5t-49 -47.5
t-63.5 -19.5q-158 0 -158 386q0 67 4 143.5t10 149.5t7 100zM431 953q16 0 28 -24.5t28.5 -63t38.5 -60.5q17 -17 17 -27q-21 -31 -47 -31q-37 0 -72 52t-35 105q0 20 11.5 34.5t30.5 14.5z" />
    <glyph glyph-name="wgrave" unicode="&#x1e81;" horiz-adv-x="778" 
d="M68 495q-43 -142 -43 -290q0 -58 9 -106t30 -89.5t60.5 -65t94.5 -23.5q4 0 10.5 2t26 16t38 37t43.5 71.5t45 114.5q36 -184 153 -184q22 0 41 8t33 26t25.5 37.5t19 51.5t13.5 57.5t9.5 67t5.5 69t3 73.5t1 70.5v69.5q0 103 -60 103q-22 0 -22 -83q0 -98 -1.5 -161.5
t-7 -146t-20 -125t-36.5 -42.5q-71 0 -71 252q0 14 1.5 51.5t1.5 62.5q0 33 -26 33q-11 0 -25.5 -6t-23.5 -12l-9 -5q-8 -6 -13 -18q-1 -2 -31 -98.5t-58 -164.5t-46 -68h-1q-44 0 -44 415q0 25 -17.5 40.5t-41.5 15.5q-22 0 -40 -14t-27 -42zM351 759q16 0 28 -24.5
t28.5 -63t38.5 -60.5q17 -17 17 -27q-21 -31 -47 -31q-37 0 -72 52t-35 105q0 20 11.5 34.5t30.5 14.5z" />
    <glyph glyph-name="Wacute" unicode="&#x1e82;" horiz-adv-x="789" 
d="M84 769q0 28 29 33q60 10 106 10q20 0 34.5 -9.5t21.5 -22.5t11 -34.5t5 -37t1 -38.5q0 -3 -20.5 -183t-20.5 -264q0 -83 19 -83q16 0 34.5 50.5t34.5 130t26 136t18 109.5q4 26 27 44q29 21 56 21q17 0 32 -8q19 -10 29.5 -128t21.5 -229.5t29 -111.5q8 0 30 94.5
t41.5 223t21.5 206.5q1 25 5.5 41t13.5 22.5t15 8t16 1.5q18 0 32.5 -16.5t14.5 -55.5q0 -104 -19 -243.5t-58 -255.5t-84 -116q-35 0 -64 16t-47.5 38.5t-33 55.5t-22 60t-12 58.5t-5.5 43.5t-2 23q-1 -16 -3 -31.5t-9 -55.5t-15.5 -73t-24.5 -73.5t-35.5 -68.5t-49 -47.5
t-63.5 -19.5q-158 0 -158 386q0 67 4 143.5t10 149.5t7 100zM505 937q14 0 23 -12t9 -28q0 -39 -30 -93.5t-67 -54.5q-21 0 -38 24q2 3 15 17t25.5 33t18.5 42q20 72 44 72z" />
    <glyph glyph-name="wacute" unicode="&#x1e83;" horiz-adv-x="778" 
d="M68 495q9 28 27 42t40 14q24 0 41.5 -15.5t17.5 -40.5q0 -415 44 -415h1q18 0 46 68t58 164.5t31 98.5q5 12 13 18q33 23 58 23q26 0 26 -33q0 -25 -1.5 -62.5t-1.5 -51.5q0 -252 71 -252q22 0 36.5 42.5t20 125t7 146t1.5 161.5q0 83 22 83q60 0 60 -103v-69.5t-1 -70.5
t-3 -73.5t-5.5 -69t-9.5 -67t-13.5 -57.5t-19 -51.5t-25.5 -37.5t-33 -26t-41 -8q-117 0 -153 184q-20 -66 -44.5 -114.5t-44.5 -71.5t-37.5 -37t-27.5 -16l-9 -2q-55 0 -94.5 23.5t-60.5 65t-30 89.5t-9 106q0 148 43 290zM424 746q14 0 23 -12t9 -28q0 -39 -30 -93.5
t-67 -54.5q-21 0 -38 24q2 3 15 17t25.5 33t18.5 42q20 72 44 72z" />
    <glyph glyph-name="Wdieresis" unicode="&#x1e84;" horiz-adv-x="789" 
d="M84 769q0 28 29 33q60 10 106 10q20 0 34.5 -9.5t21.5 -22.5t11 -34.5t5 -37t1 -38.5q0 -3 -20.5 -183t-20.5 -264q0 -83 19 -83q16 0 34.5 50.5t34.5 130t26 136t18 109.5q4 26 27 44q29 21 56 21q17 0 32 -8q19 -10 29.5 -128t21.5 -229.5t29 -111.5q8 0 30 94.5
t41.5 223t21.5 206.5q1 25 5.5 41t13.5 22.5t15 8t16 1.5q18 0 32.5 -16.5t14.5 -55.5q0 -104 -19 -243.5t-58 -255.5t-84 -116q-35 0 -64 16t-47.5 38.5t-33 55.5t-22 60t-12 58.5t-5.5 43.5t-2 23q-1 -16 -3 -31.5t-9 -55.5t-15.5 -73t-24.5 -73.5t-35.5 -68.5t-49 -47.5
t-63.5 -19.5q-158 0 -158 386q0 67 4 143.5t10 149.5t7 100zM342 822q0 32 25.5 56t58.5 24q43 0 43 -42q0 -37 -20.5 -56t-47.5 -19q-59 0 -59 37zM645 903q21 0 43 -14t22 -35q0 -24 -25.5 -44.5t-57.5 -20.5q-25 0 -38 12t-13 31q0 30 19 50.5t50 20.5z" />
    <glyph glyph-name="wdieresis" unicode="&#x1e85;" horiz-adv-x="778" 
d="M68 495q9 28 27 42t40 14q24 0 41.5 -15.5t17.5 -40.5q0 -415 44 -415h1q18 0 46 68t58 164.5t31 98.5q5 12 13 18q33 23 58 23q26 0 26 -33q0 -25 -1.5 -62.5t-1.5 -51.5q0 -252 71 -252q22 0 36.5 42.5t20 125t7 146t1.5 161.5q0 83 22 83q60 0 60 -103v-69.5t-1 -70.5
t-3 -73.5t-5.5 -69t-9.5 -67t-13.5 -57.5t-19 -51.5t-25.5 -37.5t-33 -26t-41 -8q-117 0 -153 184q-20 -66 -44.5 -114.5t-44.5 -71.5t-37.5 -37t-27.5 -16l-9 -2q-55 0 -94.5 23.5t-60.5 65t-30 89.5t-9 106q0 148 43 290zM205 611q0 32 25.5 56t58.5 24q43 0 43 -42
q0 -37 -20.5 -56t-47.5 -19q-59 0 -59 37zM508 692q21 0 43 -14t22 -35q0 -24 -25.5 -44.5t-57.5 -20.5q-25 0 -38 12t-13 31q0 30 19 50.5t50 20.5z" />
    <glyph glyph-name="Ygrave" unicode="&#x1ef2;" horiz-adv-x="545" 
d="M51 786v14q0 26 38 26q17 0 25 -7.5t13 -29.5q53 -237 100 -401q28 158 70 283q54 161 146 161q73 0 73 -50q0 -25 -17 -52q-25 -43 -75 -210.5t-75 -217.5q3 -12 3 -28q0 -11 -3.5 -55.5t-3.5 -79.5q0 -80 -28.5 -125t-112.5 -45q-47 0 -47 167q0 61 6 137
q-52 52 -82 226q-30 178 -30 287zM212 1040q16 0 28 -24.5t28.5 -63t38.5 -60.5q17 -17 17 -27q-21 -31 -47 -31q-37 0 -72 52t-35 105q0 20 11.5 34.5t30.5 14.5z" />
    <glyph glyph-name="ygrave" unicode="&#x1ef3;" horiz-adv-x="525" 
d="M281 -288q-3 10 -3 29q0 71 42 122q-2 -107 -39 -151zM121 514q-93 0 -93 -365q0 -91 28.5 -138.5t71.5 -47.5q47 0 91 53.5t62 143.5q25 -99 35 -205q-90 -129 -102 -217q0 -11 2.5 -23.5t9 -31t24.5 -30t44 -11.5q65 0 108.5 48.5t43.5 133.5q0 16 -1 24l-12 142
q127 149 184 329q3 11 3 21q0 21 -17 21q-18 0 -27 -25q-34 -85 -152 -239q-19 207 -19 346q0 21 -18.5 35t-43.5 14q-29 0 -51 -20.5t-25 -60.5q-49 -359 -114 -359q-17 0 -17 48q0 33 14 147.5t14 165.5q0 101 -43 101zM221 769q16 0 28 -24.5t28.5 -63t38.5 -60.5
q17 -17 17 -27q-21 -31 -47 -31q-37 0 -72 52t-35 105q0 20 11.5 34.5t30.5 14.5z" />
    <glyph glyph-name="endash" unicode="&#x2013;" horiz-adv-x="568" 
d="M467 266q12 -1 12 -33q-2 -18 -5 -23.5t-13 -5.5q-57 0 -114.5 -3.5t-103.5 -8t-54 -4.5h-5q-32 0 -32 29q3 37 23.5 50.5t75.5 13.5q8 0 36 0.5t46 0.5q102 0 134 -16z" />
    <glyph glyph-name="emdash" unicode="&#x2014;" horiz-adv-x="873" 
d="M738 266q3 0 7 -1t11 -9.5t7 -22.5q-3 -17 -9.5 -23t-26.5 -6q-114 0 -229.5 -3.5t-207.5 -8t-107 -4.5h-11q-39 0 -51 8t-12 21q5 37 46.5 50.5t150.5 13.5q17 0 72.5 0.5t91.5 0.5q205 0 268 -16z" />
    <glyph glyph-name="quoteleft" unicode="&#x2018;" horiz-adv-x="93" 
d="M33 647q-33 0 -33 84q0 40 27 70.5t50 30.5q16 0 16 -17q0 -12 -7.5 -21t-15.5 -30t-8 -61q0 -56 -29 -56z" />
    <glyph glyph-name="quoteright" unicode="&#x2019;" horiz-adv-x="147" 
d="M104 843q33 0 33 -84q0 -41 -27 -71.5t-50 -30.5q-16 0 -16 18q0 12 8 21t15.5 30t7.5 61q0 56 29 56z" />
    <glyph glyph-name="quotesinglbase" unicode="&#x201a;" horiz-adv-x="251" 
d="M126 76q33 0 33 -84q0 -41 -27 -71.5t-50 -30.5q-16 0 -16 18q0 12 8 21t15.5 30t7.5 61q0 56 29 56z" />
    <glyph glyph-name="quotedblleft" unicode="&#x201c;" horiz-adv-x="189" 
d="M33 644q-33 0 -33 84q0 40 26.5 70.5t49.5 30.5q16 0 16 -17q0 -12 -7.5 -21t-15 -30t-7.5 -61q0 -56 -29 -56zM130 644q-33 0 -33 84q0 40 26.5 70.5t49.5 30.5q16 0 16 -17q0 -12 -7.5 -21t-15.5 -30t-8 -61q0 -56 -28 -56z" />
    <glyph glyph-name="quotedblright" unicode="&#x201d;" horiz-adv-x="243" 
d="M200 836q33 0 33 -84q0 -41 -26.5 -71.5t-49.5 -30.5q-16 0 -16 18q0 12 7.5 21t15 30t7.5 61q0 56 29 56zM103 836q33 0 33 -84q0 -41 -26.5 -71.5t-49.5 -30.5q-16 0 -16 18q0 12 7.5 21t15 30t7.5 61q0 56 29 56z" />
    <glyph glyph-name="quotedblbase" unicode="&#x201e;" horiz-adv-x="347" 
d="M222 78q33 0 33 -84q0 -41 -26.5 -71.5t-49.5 -30.5q-16 0 -16 18q0 12 7.5 21t15 30t7.5 61q0 56 29 56zM125 78q33 0 33 -84q0 -41 -26.5 -71.5t-49.5 -30.5q-16 0 -16 18q0 12 7.5 21t15 30t7.5 61q0 56 29 56z" />
    <glyph glyph-name="bullet" unicode="&#x2022;" horiz-adv-x="286" 
d="M174 324q30 0 55.5 -17t25.5 -46q0 -41 -43 -84t-76 -43t-60.5 32t-27.5 53q0 26 36 65.5t90 39.5z" />
    <glyph glyph-name="ellipsis" unicode="&#x2026;" horiz-adv-x="762" 
d="M649 85q40 -8 40 -43q0 -29 -29 -63t-54 -38q-3 -1 -9 -1q-25 0 -47.5 19.5t-25.5 34.5v2q0 39 34.5 64.5t75.5 25.5q10 0 15 -1zM365 82q30 0 52.5 -15.5t24.5 -45.5q-5 -27 -41.5 -52t-65.5 -25q-2 0 -4 0.5t-3 0.5q-26 5 -43 30.5t-17 44.5q3 16 31 39t66 23zM152 78
q33 -14 33 -41q0 -31 -35.5 -63t-63.5 -32q-27 0 -49.5 24t-22.5 40q0 19 29.5 48.5t74.5 29.5q16 0 34 -6z" />
    <glyph glyph-name="perthousand" unicode="&#x2030;" horiz-adv-x="1011" 
d="M824 197h-1q-16 0 -22 -54q-1 -7 -1 -21q0 -36 8 -36h1h1q9 0 17 22t10 46q1 5 1 14q0 14 -5 22q-4 5 -9 7zM854 -1q-31 -20 -58 -20q-49 3 -75.5 56t-26.5 118q0 138 152 147q47 -3 65 -34q25 -38 25 -103q0 -49 -20.5 -93.5t-61.5 -70.5zM537 202q-18 0 -18 -56
q0 -21 3.5 -39t9.5 -17q9 0 15.5 23t6.5 48q0 27 -7 35q-6 6 -10 6zM584 8q-33 -26 -63 -26q-49 0 -80 60.5t-31 128.5q0 64 27 85q67 52 122 52q39 0 59 -29q34 -42 34 -120q0 -98 -68 -151zM138 706v10q0 53 -13 53q-16 -2 -16 -57q0 -28 7 -36q4 -4 8 -4q12 0 14 34z
M70 855q34 28 65 28q50 0 83 -62.5t33 -130.5q0 -57 -48 -95t-100 -38q-48 0 -71.5 50t-23.5 106q0 89 62 142zM57 -141q101 325 250 698q20 50 41 104.5t34.5 89.5t28 72.5t23.5 60t20 45.5t19.5 35t18.5 22t20 13.5t22 3.5q9 0 21 -3q21 -4 21 -42q0 -68 -69.5 -249
t-181 -447.5t-167.5 -429.5q-16 -47 -61 -47q-12 0 -24 4q-22 7 -22 36z" />
    <glyph glyph-name="guilsinglleft" unicode="&#x2039;" horiz-adv-x="458" 
d="M438 414q-1 -20 -27 -42t-88 -61q-59 -39 -74 -50q84 -78 138 -120q31 -23 31 -55q0 -19 -13.5 -32t-33.5 -13q-31 0 -72 29q-89 63 -134 110t-45 88v8q3 20 15 34t38.5 30.5t33.5 22.5q149 103 187 103q5 0 7 -1q18 0 27.5 -15t9.5 -36z" />
    <glyph glyph-name="guilsinglright" unicode="&#x203a;" horiz-adv-x="378" 
d="M159 447q91 -65 135 -112t44 -94q-1 -15 -13 -30t-23 -23t-33 -22q-171 -115 -205 -115h-2q-4 0 -6 1q-18 0 -27 15t-9 36q1 20 26.5 41.5t87.5 61.5q54 34 74 50q-76 73 -137 119q-31 26 -31 56q0 19 13.5 32t33.5 13q31 0 72 -29z" />
    <glyph glyph-name="fraction" unicode="&#x2044;" horiz-adv-x="335" 
d="M-26 -95q81 260 200 558q16 40 33 83.5t27.5 72t22 58.5t19 48t16 36t15.5 27.5t15 17.5t15.5 11t17.5 3q34 0 34 -36q0 -55 -55.5 -200t-145 -358.5t-134.5 -343.5q-13 -37 -47 -37q-16 0 -27 8.5t-11 24.5z" />
    <glyph glyph-name="Euro" unicode="&#x20ac;" horiz-adv-x="630" 
d="M24 349q-44 0 -46 30v4q0 26 34 26h2q25 2 69 3q4 95 26.5 169.5t53 117.5t68 70.5t67 37t54.5 9.5q88 0 141 -54t53 -110q0 -48 -39 -48q-18 0 -27.5 10t-14.5 24t-13 28t-29 24t-56 10q-41 0 -67 -76t-30 -215q33 0 73 2q15 1 37 1q27 0 38.5 -7.5t14.5 -31.5
q0 -17 -5 -23q-13 -14 -67 -14t-91 3q0 -22 1 -33l118 -3q46 -2 46 -30q0 -30 -34 -30h-2q-29 -4 -121 -4q16 -105 64.5 -158.5t124.5 -53.5q8 0 39.5 9t47.5 9q17 0 27.5 -11.5t10.5 -29.5q0 -40 -58.5 -68.5t-134.5 -28.5q-48 0 -93 16.5t-90 52.5t-78.5 104.5
t-47.5 161.5q-7 -1 -20 -1q-8 0 -20 -0.5t-16 -0.5q-27 0 -38.5 8t-15.5 32v4q0 10 6 18q12 15 66 15q20 0 31 -1q0 6 -0.5 16.5t-0.5 15.5q-9 0 -28.5 0.5t-29.5 0.5z" />
    <glyph glyph-name="minus" unicode="&#x2212;" horiz-adv-x="464" 
d="M400 367q14 -1 14 -46q-2 -23 -5.5 -31t-14.5 -8q-64 0 -129 -5t-117.5 -11t-59.5 -7h-6q-36 0 -36 41q3 52 26 70.5t85 18.5q9 0 40.5 0.5t51.5 0.5q115 0 151 -23z" />
    <glyph glyph-name="apple" unicode="&#xf8ff;" horiz-adv-x="815" 
d="M536 741l-99 -95q-22 2 -30 2q-7 0 -29 -2l-99 95h72l56 -59l56 59h73zM553 207q0 -56 -46 -84t-112 -28q-47 0 -134 40l12 58q70 -44 130 -44q38 0 61 15.5t23 38.5q0 34 -66 68l-40 20q-52 26 -81 52.5t-29 66.5q0 56 41.5 81.5t93.5 25.5q37 0 73 -17q12 -5 32 -16
l20 -12l-13 -54q-52 45 -110 45q-34 0 -54 -14t-20 -36q0 -33 67 -62q4 -2 27.5 -12t31 -14.5t27 -15t27.5 -19t19 -22t15.5 -28.5t4.5 -33zM670 306q0 109 -77 186t-186 77t-186 -77t-77 -186t77 -186t186 -77t186 77t77 186zM725 306q0 -132 -93 -225t-225 -93
q-131 0 -224 93t-93 225q0 131 93 224t224 93q132 0 225 -93t93 -224z" />
    <glyph glyph-name="A.001" horiz-adv-x="818" 
d="M495 451q-14 152 -21 289q-4 0 -8.5 -7.5t-9.5 -24t-9.5 -34t-11 -47.5t-11 -53t-12.5 -62t-13 -65q24 2 38 2q22 0 58 2zM102 14q31 0 64 74t72 210q-69 -54 -111.5 -131t-42.5 -124q0 -29 18 -29zM503 948q31 0 66 -24q14 -10 26.5 -46.5t25 -115t18.5 -123.5t20 -156
q29 11 54.5 26t39.5 23.5t23 8.5t16.5 -8.5t7.5 -18.5q0 -25 -34.5 -55.5t-96.5 -52.5q23 -177 43 -242q28 -91 28 -148q0 -66 -41 -66q-30 0 -46 2t-35.5 12.5t-30.5 30.5t-24.5 57.5t-24 92.5t-22.5 136q-5 31 -13 93q-40 -2 -62 -2q-31 0 -60 -6q-44 -189 -88 -275
q-36 -70 -84 -105.5t-93 -35.5q-41 0 -67 27t-26 73q0 127 63 229t187 144q81 298 114 386q30 76 55 109q21 28 61 30z" />
    <glyph glyph-name="Aacute.001" horiz-adv-x="818" 
d="M545 1174q14 0 23 -12t9 -28q0 -39 -30 -93.5t-67 -54.5q-21 0 -38 24q2 3 15 17t25.5 33t18.5 42q20 72 44 72zM495 451q-14 152 -21 289q-4 0 -8.5 -7.5t-9.5 -24t-9.5 -34t-11 -47.5t-11 -53t-12.5 -62t-13 -65q24 2 38 2q22 0 58 2zM102 14q31 0 64 74t72 210
q-69 -54 -111.5 -131t-42.5 -124q0 -29 18 -29zM503 948q31 0 66 -24q14 -10 26.5 -46.5t25 -115t18.5 -123.5t20 -156q29 11 54.5 26t39.5 23.5t23 8.5t16.5 -8.5t7.5 -18.5q0 -25 -34.5 -55.5t-96.5 -52.5q23 -177 43 -242q28 -91 28 -148q0 -66 -41 -66q-30 0 -46 2
t-35.5 12.5t-30.5 30.5t-24.5 57.5t-24 92.5t-22.5 136q-5 31 -13 93q-40 -2 -62 -2q-31 0 -60 -6q-44 -189 -88 -275q-36 -70 -84 -105.5t-93 -35.5q-41 0 -67 27t-26 73q0 127 63 229t187 144q81 298 114 386q30 76 55 109q21 28 61 30z" />
    <glyph glyph-name="Acircumflex.001" horiz-adv-x="818" 
d="M583 1119q81 -117 81 -143q0 -19 -25 -21h-2q-13 0 -36 24t-54.5 64t-42.5 52q-43 -38 -93 -109q-20 -29 -42 -29t-22 24q0 32 22 64q80 118 144 118q39 0 70 -44zM495 451q-14 152 -21 289q-4 0 -8.5 -7.5t-9.5 -24t-9.5 -34t-11 -47.5t-11 -53t-12.5 -62t-13 -65
q24 2 38 2q22 0 58 2zM102 14q31 0 64 74t72 210q-69 -54 -111.5 -131t-42.5 -124q0 -29 18 -29zM503 948q31 0 66 -24q14 -10 26.5 -46.5t25 -115t18.5 -123.5t20 -156q29 11 54.5 26t39.5 23.5t23 8.5t16.5 -8.5t7.5 -18.5q0 -25 -34.5 -55.5t-96.5 -52.5q23 -177 43 -242
q28 -91 28 -148q0 -66 -41 -66q-30 0 -46 2t-35.5 12.5t-30.5 30.5t-24.5 57.5t-24 92.5t-22.5 136q-5 31 -13 93q-40 -2 -62 -2q-31 0 -60 -6q-44 -189 -88 -275q-36 -70 -84 -105.5t-93 -35.5q-41 0 -67 27t-26 73q0 127 63 229t187 144q81 298 114 386q30 76 55 109
q21 28 61 30z" />
    <glyph glyph-name="Adieresis.001" horiz-adv-x="818" 
d="M316 1030q0 32 25.5 56t58.5 24q43 0 43 -42q0 -37 -20.5 -56t-47.5 -19q-59 0 -59 37zM619 1111q21 0 43 -14t22 -35q0 -24 -25.5 -44.5t-57.5 -20.5q-25 0 -38 12t-13 31q0 30 19 50.5t50 20.5zM495 451q-14 152 -21 289q-4 0 -8.5 -7.5t-9.5 -24t-9.5 -34t-11 -47.5
t-11 -53t-12.5 -62t-13 -65q24 2 38 2q22 0 58 2zM102 14q31 0 64 74t72 210q-69 -54 -111.5 -131t-42.5 -124q0 -29 18 -29zM503 948q31 0 66 -24q14 -10 26.5 -46.5t25 -115t18.5 -123.5t20 -156q29 11 54.5 26t39.5 23.5t23 8.5t16.5 -8.5t7.5 -18.5q0 -25 -34.5 -55.5
t-96.5 -52.5q23 -177 43 -242q28 -91 28 -148q0 -66 -41 -66q-30 0 -46 2t-35.5 12.5t-30.5 30.5t-24.5 57.5t-24 92.5t-22.5 136q-5 31 -13 93q-40 -2 -62 -2q-31 0 -60 -6q-44 -189 -88 -275q-36 -70 -84 -105.5t-93 -35.5q-41 0 -67 27t-26 73q0 127 63 229t187 144
q81 298 114 386q30 76 55 109q21 28 61 30z" />
    <glyph glyph-name="Agrave.001" horiz-adv-x="818" 
d="M459 1195q16 0 28 -24.5t28.5 -63t38.5 -60.5q17 -17 17 -27q-21 -31 -47 -31q-37 0 -72 52t-35 105q0 20 11.5 34.5t30.5 14.5zM495 451q-36 -2 -58 -2q-14 0 -38 -2q5 26 13 65t12.5 62t11 53t11 47.5t9.5 34t9.5 24t8.5 7.5q7 -137 21 -289zM102 14q-18 0 -18 29
q0 47 42.5 124t111.5 131q-39 -136 -72 -210t-64 -74zM503 948q-40 -2 -61 -30q-54 -69 -156 -449q-9 -31 -13 -46q-124 -42 -187 -144t-63 -229q0 -46 26 -73t67 -27q45 0 93 35.5t84 105.5q44 86 88 275q29 6 60 6q22 0 62 2q8 -62 13 -93q12 -81 22.5 -136t24 -92.5
t24.5 -57.5t30.5 -30.5t35.5 -12.5t46 -2q41 0 41 66q0 57 -28 148q-20 65 -43 242q62 22 96.5 52.5t34.5 55.5q0 10 -7.5 18.5t-16.5 8.5t-23 -8.5t-39.5 -23.5t-54.5 -26q-14 111 -20 156t-18.5 123.5t-25 115t-26.5 46.5q-35 24 -66 24z" />
    <glyph glyph-name="Aring.001" horiz-adv-x="818" 
d="M509 1168q-18 0 -18 -46q0 -45 13 -45q9 0 15 17.5t6 38.5q0 35 -16 35zM609 1130q0 -46 -33.5 -84.5t-80.5 -38.5q-43 0 -71 43.5t-28 92.5q0 34 25 56.5t52 30t52 7.5q36 0 60 -28t24 -79zM495 451q-14 152 -21 289q-4 0 -8.5 -7.5t-9.5 -24t-9.5 -34t-11 -47.5
t-11 -53t-12.5 -62t-13 -65q24 2 38 2q22 0 58 2zM102 14q31 0 64 74t72 210q-69 -54 -111.5 -131t-42.5 -124q0 -29 18 -29zM503 948q31 0 66 -24q14 -10 26.5 -46.5t25 -115t18.5 -123.5t20 -156q29 11 54.5 26t39.5 23.5t23 8.5t16.5 -8.5t7.5 -18.5q0 -25 -34.5 -55.5
t-96.5 -52.5q23 -177 43 -242q28 -91 28 -148q0 -66 -41 -66q-30 0 -46 2t-35.5 12.5t-30.5 30.5t-24.5 57.5t-24 92.5t-22.5 136q-5 31 -13 93q-40 -2 -62 -2q-31 0 -60 -6q-44 -189 -88 -275q-36 -70 -84 -105.5t-93 -35.5q-41 0 -67 27t-26 73q0 127 63 229t187 144
q81 298 114 386q30 76 55 109q21 28 61 30z" />
    <glyph glyph-name="Atilde.001" horiz-adv-x="818" 
d="M696 1115q17 0 17 -26q0 -29 -25 -60.5t-74 -31.5q-46 0 -133 39t-120 39q-17 0 -24 -17.5t-7 -37.5q0 -11 3 -23t3 -15q0 -14 -17 -15q-15 0 -25.5 20.5t-10.5 46.5q0 60 37.5 98t86.5 38q41 0 116 -40t98 -40q11 0 22.5 2.5t20.5 6t16 7.5t12 6zM495 451
q-14 152 -21 289q-4 0 -8.5 -7.5t-9.5 -24t-9.5 -34t-11 -47.5t-11 -53t-12.5 -62t-13 -65q24 2 38 2q22 0 58 2zM102 14q31 0 64 74t72 210q-69 -54 -111.5 -131t-42.5 -124q0 -29 18 -29zM503 948q31 0 66 -24q14 -10 26.5 -46.5t25 -115t18.5 -123.5t20 -156
q29 11 54.5 26t39.5 23.5t23 8.5t16.5 -8.5t7.5 -18.5q0 -25 -34.5 -55.5t-96.5 -52.5q23 -177 43 -242q28 -91 28 -148q0 -66 -41 -66q-30 0 -46 2t-35.5 12.5t-30.5 30.5t-24.5 57.5t-24 92.5t-22.5 136q-5 31 -13 93q-40 -2 -62 -2q-31 0 -60 -6q-44 -189 -88 -275
q-36 -70 -84 -105.5t-93 -35.5q-41 0 -67 27t-26 73q0 127 63 229t187 144q81 298 114 386q30 76 55 109q21 28 61 30z" />
    <glyph glyph-name="B.001" horiz-adv-x="596" 
d="M244 494q36 0 66.5 26t48 62.5t30 73t17.5 62.5l5 26q0 51 -29 51q-12 0 -46.5 -75.5t-63.5 -150.5zM182 825q1 -26 18 -191q83 257 182 257q49 0 84 -19t53 -51.5t26 -68t8 -76.5q0 -74 -60.5 -150.5t-114.5 -77.5q10 -1 22.5 -4.5t39 -15.5t46 -29.5t35.5 -50.5t16 -75
q0 -70 -28.5 -134.5t-73.5 -108t-101 -69.5t-110 -26h-1q-32 0 -32 23q0 32 21 32q6 0 23 9t43 31.5t49.5 54t40 82t16.5 109.5q0 8 -1 19.5t-8 34t-18.5 40t-36.5 31t-59 13.5q-9 0 -21 -0.5t-18 -0.5q22 -233 22 -359q-2 -4 -6 -9.5t-25.5 -15t-53.5 -9.5q-52 0 -80 21.5
t-28 59.5q0 11 -6 299t-6 378q0 6 0.5 16t3 36t6.5 46.5t13.5 40t22.5 23.5q13 5 27 5q20 0 34.5 -13.5t21.5 -35t10 -38t4 -33.5z" />
    <glyph glyph-name="C.001" horiz-adv-x="591" 
d="M262 886q84 0 135.5 -53t51.5 -107q0 -46 -38 -46q-21 0 -31.5 14.5t-14.5 32t-26 32t-63 14.5q-44 0 -69 -87.5t-25 -245.5q0 -157 50 -237t141 -80q58 0 102 16.5t66.5 39.5t37.5 46.5t23 40t14 16.5q17 0 17 -36q0 -32 -22 -73.5t-60 -82t-100.5 -68t-133.5 -27.5
q-41 0 -82.5 13.5t-84.5 47t-75.5 84.5t-53.5 133t-21 184q0 101 20.5 180.5t50.5 125t67.5 74.5t67.5 39t56 10z" />
    <glyph glyph-name="Ccedilla.001" horiz-adv-x="591" 
d="M262 886q84 0 135.5 -53t51.5 -107q0 -46 -38 -46q-21 0 -31.5 14.5t-14.5 32t-26 32t-63 14.5q-44 0 -69 -87.5t-25 -245.5q0 -157 50 -237t141 -80q58 0 102 16.5t66.5 39.5t37.5 46.5t23 40t14 16.5q17 0 17 -36q0 -31 -20.5 -71t-56 -79t-94 -67.5t-125.5 -32.5
q-1 -1 -4 -4.5t-5 -5.5q17 -12 27.5 -33t10.5 -43q0 -38 -28 -60t-76 -22q-20 0 -34 9t-14 22q0 20 33 20q4 0 9 -1h6q11 0 17.5 10t6.5 25q-2 17 -8.5 26.5t-13.5 11.5t-12.5 8t-5.5 17q0 15 12 26q-49 12 -92 41.5t-82 81.5t-61.5 137.5t-22.5 194.5q0 101 20.5 180.5
t50.5 125t67.5 74.5t67.5 39t56 10z" />
    <glyph glyph-name="D.001" horiz-adv-x="628" 
d="M-6 891q61 15 144 15q58 0 110.5 -9t112.5 -37.5t103.5 -74.5t72.5 -128t29 -190q0 -96 -24.5 -173.5t-61.5 -125.5t-87.5 -84t-93.5 -53t-90.5 -26.5t-67.5 -11t-34 -1.5h-4q-7 0 -14 1.5t-17 6.5t-16 17t-6 30q0 10 1 16q2 12 47 12q-26 36 -32 107.5t-6 265.5v62t1 58
t3.5 56.5t6.5 47t11 42.5t16.5 30t22.5 21.5t30 6.5q18 0 36 -7q44 -15 44 -371q0 -147 -7 -299q172 70 172 419q0 83 -26.5 145t-62 93.5t-83.5 50.5t-79 23t-60 4q-7 0 -16.5 -0.5t-13.5 -0.5q-62 0 -62 49q0 8 1 13z" />
    <glyph glyph-name="E.001" horiz-adv-x="606" 
d="M69 696q0 57 17.5 101t41.5 67t56.5 37.5t56.5 18.5t46 4q37 0 63.5 -14.5t26.5 -38.5q-2 -17 -26.5 -26.5t-52.5 -16.5t-51.5 -37.5t-23.5 -83.5q0 -66 11.5 -98.5t53.5 -42.5q13 -4 26.5 -14.5t13.5 -22.5q0 -7 -5 -17q-2 -9 -12.5 -17.5t-20.5 -10.5
q-105 -32 -105 -220q0 -86 12.5 -118.5t62.5 -32.5q59 0 106 36t75.5 87.5t51 103t43 87.5t41.5 36q10 0 10 -33q0 -36 -12 -89t-40 -117.5t-68 -119t-103.5 -91.5t-138.5 -37q-202 0 -202 249q0 97 33 182t92 127q-79 55 -79 162z" />
    <glyph glyph-name="Eacute.001" horiz-adv-x="606" 
d="M305 1154q14 0 23 -12t9 -28q0 -39 -30 -93.5t-67 -54.5q-21 0 -38 24q2 3 15 17t25.5 33t18.5 42q20 72 44 72zM69 696q0 57 17.5 101t41.5 67t56.5 37.5t56.5 18.5t46 4q37 0 63.5 -14.5t26.5 -38.5q-2 -17 -26.5 -26.5t-52.5 -16.5t-51.5 -37.5t-23.5 -83.5
q0 -66 11.5 -98.5t53.5 -42.5q13 -4 26.5 -14.5t13.5 -22.5q0 -7 -5 -17q-2 -9 -12.5 -17.5t-20.5 -10.5q-105 -32 -105 -220q0 -86 12.5 -118.5t62.5 -32.5q59 0 106 36t75.5 87.5t51 103t43 87.5t41.5 36q10 0 10 -33q0 -36 -12 -89t-40 -117.5t-68 -119t-103.5 -91.5
t-138.5 -37q-202 0 -202 249q0 97 33 182t92 127q-79 55 -79 162z" />
    <glyph glyph-name="Ecircumflex.001" horiz-adv-x="606" 
d="M326 1123q81 -117 81 -143q0 -19 -25 -21h-2q-13 0 -36 24t-54.5 64t-42.5 52q-43 -38 -93 -109q-20 -29 -42 -29t-22 24q0 32 22 64q80 118 144 118q39 0 70 -44zM69 696q0 57 17.5 101t41.5 67t56.5 37.5t56.5 18.5t46 4q37 0 63.5 -14.5t26.5 -38.5
q-2 -17 -26.5 -26.5t-52.5 -16.5t-51.5 -37.5t-23.5 -83.5q0 -66 11.5 -98.5t53.5 -42.5q13 -4 26.5 -14.5t13.5 -22.5q0 -7 -5 -17q-2 -9 -12.5 -17.5t-20.5 -10.5q-105 -32 -105 -220q0 -86 12.5 -118.5t62.5 -32.5q59 0 106 36t75.5 87.5t51 103t43 87.5t41.5 36
q10 0 10 -33q0 -36 -12 -89t-40 -117.5t-68 -119t-103.5 -91.5t-138.5 -37q-202 0 -202 249q0 97 33 182t92 127q-79 55 -79 162z" />
    <glyph glyph-name="Edieresis.001" horiz-adv-x="606" 
d="M70 1020q0 32 25.5 56t58.5 24q43 0 43 -42q0 -37 -20.5 -56t-47.5 -19q-59 0 -59 37zM373 1101q21 0 43 -14t22 -35q0 -24 -25.5 -44.5t-57.5 -20.5q-25 0 -38 12t-13 31q0 30 19 50.5t50 20.5zM69 696q0 57 17.5 101t41.5 67t56.5 37.5t56.5 18.5t46 4q37 0 63.5 -14.5
t26.5 -38.5q-2 -17 -26.5 -26.5t-52.5 -16.5t-51.5 -37.5t-23.5 -83.5q0 -66 11.5 -98.5t53.5 -42.5q13 -4 26.5 -14.5t13.5 -22.5q0 -7 -5 -17q-2 -9 -12.5 -17.5t-20.5 -10.5q-105 -32 -105 -220q0 -86 12.5 -118.5t62.5 -32.5q59 0 106 36t75.5 87.5t51 103t43 87.5
t41.5 36q10 0 10 -33q0 -36 -12 -89t-40 -117.5t-68 -119t-103.5 -91.5t-138.5 -37q-202 0 -202 249q0 97 33 182t92 127q-79 55 -79 162z" />
    <glyph glyph-name="Egrave.001" horiz-adv-x="606" 
d="M207 1190q16 0 28 -24.5t28.5 -63t38.5 -60.5q17 -17 17 -27q-21 -31 -47 -31q-37 0 -72 52t-35 105q0 20 11.5 34.5t30.5 14.5zM69 696q0 -107 79 -162q-59 -42 -92 -127t-33 -182q0 -249 202 -249q75 0 138.5 37t103.5 91.5t68 119t40 117.5t12 89q0 33 -10 33
q-21 0 -41.5 -36t-43 -87.5t-51 -103t-75.5 -87.5t-106 -36q-50 0 -62.5 32.5t-12.5 118.5q0 188 105 220q10 2 20.5 10.5t12.5 17.5q5 10 5 17q0 12 -13.5 22.5t-26.5 14.5q-42 10 -53.5 42.5t-11.5 98.5q0 53 23.5 83.5t51.5 37.5t52.5 16.5t26.5 26.5q0 24 -26.5 38.5
t-63.5 14.5q-22 0 -46 -4t-56.5 -18.5t-56.5 -37.5t-41.5 -67t-17.5 -101z" />
    <glyph glyph-name="F.001" horiz-adv-x="615" 
d="M96 785q25 -75 45 -260h6q3 154 8 258q-46 2 -59 2zM354 886q123 0 192 -16t69 -63q0 -27 -258 -27h-39q3 -30 3 -72q0 -22 -1 -50t-2 -68.5t-2 -68.5q87 -3 135.5 -21t48.5 -64q0 -27 -185 -29v-27q0 -71 -2.5 -128t-9 -113t-17 -93.5t-28.5 -60.5t-42 -23
q-62 0 -131 449l-70 4q-14 19 -14 44q0 22 14 40q17 22 54 25l-35 299v5q0 62 112 62q31 0 50 -1q11 4 27 4q15 0 28 -5q60 -2 103 -2z" />
    <glyph glyph-name="G.001" horiz-adv-x="690" 
d="M325 249q15 0 27.5 5t21.5 11t18 19.5t13.5 22t11 27.5t9 26.5t8 29t6.5 25.5q-7 115 -18 209q-2 20 -2 25q0 15 3 26.5t7 16.5t8.5 8t7.5 4h3q48 0 85 -79t54 -187t17 -216q0 -68 -8 -131t-31.5 -131t-60.5 -117.5t-100.5 -81.5t-145.5 -32q-86 0 -166 51.5t-101 113.5
q-5 16 -5 35q0 18 8 38t23 20q8 0 17.5 -16.5t25 -39.5t39.5 -46.5t71.5 -40t110.5 -16.5q148 0 161 373q-67 -77 -177 -77q-66 0 -118.5 54.5t-80.5 141.5t-28 187q0 96 28 183q17 52 40 91t44.5 60t46 34t41.5 16.5t34 3.5t26 -3q40 -8 64 -42t24 -67q0 -15 -7 -26
t-20 -11q-12 0 -31.5 25.5t-38.5 25.5q-70 0 -70 -180q0 -62 5 -122t16.5 -117.5t33 -93t50.5 -35.5z" />
    </font>
</defs>
</svg>
